+10

Импостер / #Manhole (2023) WEB-DL 1080p от селезень | P

Информация о фильме
Название: Импостер
Оригинальное название: #Manhole
Год выхода: 2023
Жанр: драма, триллер
Режиссер: Кадзуёси Кумакири
В ролях: Юто Накадзима, Нао, Кэнто Нагаяма, Хару Куроки

О фильме:
Сюнсукэ Кавамура — молодой успешный карьерист, у ног которого весь мир. Возвращаясь домой с мальчишника накануне собственной свадьбы, он падает в люк.Охваченный ужасом парень пытается спастись, используя социальные сети. Несколько постов Сюнсукэ за считанные минуты становятся невероятно популярными, а реакция пользователей заставляет задуматься: действительно ли падение в люк — фатальная случайность, а не изобретательная ловушка?

Выпущено: Япония / J Storm
Продолжительность: 01:39:49
Перевод: Профессиональный (многоголосый, закадровый) | KION
Субтитры: Русские (Forced, Full)

Файл
Качество: WEB-DL 1080p
Формат: MKV
Видео: 1920x1080, 24.000 fps, MPEG-4 AVC, ~6144 Kbps
Аудио: AC3, 6 ch, ~640 kbps - | Русский | Импостер / #Manhole (2023) WEB-DL 1080p от селезень | P
Формат субтитров: softsub (SRT)

Авторизуйтесь для получения доступа к скачиванию

Нет аккаунта? Регистрация открыта и займёт меньше минуты

Вход Регистрация

General
Unique ID: 111564374360206975294087443626655432393 (0×53EE845592434D02A09CAB804EE33EC9)
Complete name: G: VideoG#Manhole.2023.WEB-DL.1080p.seleZen.mkv
Format: Matroska
Format version: Version 4
File size: 4.71 GiB
Duration: 1 h 39 min
Overall bit rate: 6 757 kb/s
Frame rate: 24.000 FPS
Movie name: #Manhole 2023 from seleZen
Encoded date: 19.09.2023 18:19:09 UTC
Writing application: mkvmerge v63.0.0 ('Everything') 64-bit
Writing library: libebml v1.4.2 + libmatroska v1.6.4

Video
ID: 1
Format: AVC
Format/Info: Advanced Video Codec
Format profile: Constrained Baseline@L4
Format settings: 2 Ref Frames
Format settings, CABAC: No
Format settings, Reference frames: 2 frames
Codec ID: V_MPEG4/ISO/AVC
Duration: 1 h 39 min
Bit rate mode: Constant
Bit rate: 6 144 kb/s
Width: 1 920 pixels
Height: 1 080 pixels
Display aspect ratio: 16:9
Frame rate mode: Constant
Frame rate: 24.000 FPS
Color space: YUV
Chroma subsampling: 4:2:0
Bit depth: 8 bits
Scan type: Progressive
Bits/(Pixel*Frame): 0.123
Stream size: 4.26 GiB (90%)
Language: English
Default: Yes
Forced: No

Audio
ID: 2
Format: AC-3
Format/Info: Audio Coding 3
Commercial name: Dolby Digital
Codec ID: A_AC3
Duration: 1 h 39 min
Bit rate mode: Constant
Bit rate: 640 kb/s
Channel (s): 6 channels
Channel layout: L R C LFE Ls Rs
Sampling rate: 48.0 kHz
Frame rate: 31.250 FPS (1536 SPF)
Compression mode: Lossy
Stream size: 457 MiB (9%)
Title: MVO [KION]
Language: Russian
Service kind: Complete Main
Default: Yes
Forced: No

Text #1
ID: 3
Format: UTF-8
Codec ID: S_TEXT/UTF8
Codec ID/Info: UTF-8 Plain Text
Duration: 1 h 24 min
Bit rate: 20 b/s
Frame rate: 0.047 FPS
Count of elements: 238
Stream size: 12.8 KiB (0%)
Title: Forced
Language: Russian
Default: Yes
Forced: No

Text #2
ID: 4
Format: UTF-8
Codec ID: S_TEXT/UTF8
Codec ID/Info: UTF-8 Plain Text
Duration: 1 h 36 min
Bit rate: 57 b/s
Frame rate: 0.163 FPS
Count of elements: 940
Stream size: 40.7 KiB (0%)
Title: Full
Language: Russian
Default: No
Forced: No

Другие фильмы
У данной публикации пока нет комментариев.
Будь первым, оставь своё мнение в комментариях!
Информация
Посетители, находящиеся в группе Гости, не могут оставлять комментарии к данной публикации.
Самый популярный релиз недели
Донаты
Мы в соц. сетях / RSS

Лучшие релизы месяца
Лучшие SD недели
Лучшие 720p недели
Лучшие 1080p недели
Лучшие 4K недели
Вы недавно смотрели
Реклама
Последние комментарии
...

Bonzo

14 июня 2024 14:52

...

rmzshka

13 июня 2024 17:48

...

rmzshka

13 июня 2024 12:24

...

LisNick

13 июня 2024 08:45

...

SkySpirit

8 июня 2024 19:54

Реклама