+11

Бандиты во времени / Time Bandits (1981) UHD BDRemux 2160p от селезень | 4K | HDR | Dolby Vision Profile 8 | Лицензия

Информация о фильме
Название: Бандиты во времени
Оригинальное название: Time Bandits
Год выхода: 1981
Жанр: фантастика, фэнтези, комедия, приключения
Режиссер: Терри Гиллиам
В ролях: Джон Клиз, Шон Коннери, Шелли Дювалл, Кэтрин Хелмонд, Иэн Холм, Майкл Пэйлин, Ральф Ричардсон, Питер Вон, Дэвид Уорнер, Дэвид Раппапорт

О фильме: Шесть предприимчивых карликов устраивают обычному мальчику по имени Кевин грандиозное путешествие по туннелям времени. Дело в том, что крошечные бандиты завладели волшебной картой, принадлежавшей их бывшему хозяину - Верховному Существу, сотворившему Мир.
С помощью заветной карты они путешествуют из одной эпохи в другую и попадают в самые удивительные ситуации: оказываются в компании подвыпившего Наполеона Бонапарта и царя Агамемнона, отправляются в плавание на корабле морского монстра и злополучном «Титанике», гостят в Шервудском лесу у Робин Гуда и пытаются выбраться из заточения Вечной Пустоты.


Страна: Великобритания
Студия: Handmade Films Ltd.
Продолжительность: 01:56:07
Перевод: Профессиональный многоголосый | Лицензия R5

Качество: BDRemux 2160p
Видео: 3840x2160 at 23.976 fps, MPEG-H HEVC HDR, Dolby Vision Video, 83700 kbps avg
Аудио #01: 48 kHz, AC3, 5.1, 640 Kbps | Профессиональный многоголосый | Лицензия BD CEE | RUS |Бандиты во времени / Time Bandits (1981) UHD BDRemux 2160p от селезень | 4K | HDR | Dolby Vision Profile 8 |  Лицензия
Аудио #02: 48 kHz, PCM, 2.0, 2304 Kbps | Оригинал | ENG |
Субтитры: Русские (2 x full), английские

Бандиты во времени / Time Bandits (1981) UHD BDRemux 2160p от селезень | 4K | HDR | Dolby Vision Profile 8 |  Лицензия

Авторизуйтесь для получения доступа к скачиванию

Нет аккаунта? Регистрация открыта и займёт меньше минуты

Вход Регистрация

General
Unique ID : 214227381632327262032914500232343659322 (0xA12AB1632963B1C0F5C4C4D9231B233A)
Complete name : G:\VideoG\Time.Bandits.1981.BDREMUX.2160p.HDR.DVP8.seleZen.mkv
Format : Matroska
Format version : Version 4
File size : 70.3 GiB
Duration : 1 h 56 min
Overall bit rate : 86.6 Mb/s
Frame rate : 23.976 FPS
Movie name : Time Bandits 1981 from seleZen
Encoded date : 2023-09-19 16:44:03 UTC
Writing application : mkvmerge v79.0 ('Funeral Pyres') 64-bit
Writing library : libebml v1.4.4 + libmatroska v1.7.1

Video
ID : 1
ID in the original source medium : 4117 (0x1015)
Format : HEVC
Format/Info : High Efficiency Video Coding
Format profile : Main [email protected]@High
HDR format : Dolby Vision, Version 1.0, dvhe.08.06, BL+RPU, Blu-ray compatible / SMPTE ST 2086, HDR10 compatible
Codec ID : V_MPEGH/ISO/HEVC
Duration : 1 h 56 min
Bit rate : 83.7 Mb/s
Width : 3 840 pixels
Height : 2 160 pixels
Display aspect ratio : 16:9
Frame rate mode : Constant
Frame rate : 23.976 (24000/1001) FPS
Color space : YUV
Chroma subsampling : 4:2:0 (Type 2)
Bit depth : 10 bits
Bits/(Pixel*Frame) : 0.421
Stream size : 67.9 GiB (97%)
Language : English
Default : No
Forced : No
Color range : Limited
Color primaries : BT.2020
Transfer characteristics : PQ
Matrix coefficients : BT.2020 non-constant
Mastering display color primaries : BT.2020
Mastering display luminance : min: 0.0001 cd/m2, max: 1000 cd/m2
Maximum Content Light Level : 1000 cd/m2
Maximum Frame-Average Light Level : 911 cd/m2
Original source medium : Blu-ray

Audio #1
ID : 2
Format : AC-3
Format/Info : Audio Coding 3
Commercial name : Dolby Digital
Codec ID : A_AC3
Duration : 1 h 56 min
Bit rate mode : Constant
Bit rate : 640 kb/s
Channel(s) : 6 channels
Channel layout : L R C LFE Ls Rs
Sampling rate : 48.0 kHz
Frame rate : 31.250 FPS (1536 SPF)
Compression mode : Lossy
Stream size : 532 MiB (1%)
Title : MVO [License R5]
Language : Russian
Service kind : Complete Main
Default : Yes
Forced : No

Audio #2
ID : 3
Format : PCM
Format settings : Little / Signed
Codec ID : A_PCM/INT/LIT
Duration : 1 h 56 min
Bit rate mode : Constant
Bit rate : 2 304 kb/s
Channel(s) : 2 channels
Sampling rate : 48.0 kHz
Frame rate : 25.000 FPS (1920 SPF)
Bit depth : 24 bits
Stream size : 1.87 GiB (3%)
Title : Original
Language : English
Default : No
Forced : No

Text #1
ID : 4
Format : UTF-8
Codec ID : S_TEXT/UTF8
Codec ID/Info : UTF-8 Plain Text
Duration : 1 h 53 min
Bit rate : 87 b/s
Frame rate : 0.203 FPS
Count of elements : 1379
Stream size : 72.3 KiB (0%)
Title : Full v.1
Language : Russian
Default : No
Forced : No

Text #2
ID : 5
Format : UTF-8
Codec ID : S_TEXT/UTF8
Codec ID/Info : UTF-8 Plain Text
Duration : 1 h 51 min
Bit rate : 64 b/s
Frame rate : 0.146 FPS
Count of elements : 977
Stream size : 52.6 KiB (0%)
Title : Full v.2
Language : Russian
Default : No
Forced : No

Text #3
ID : 6
Format : UTF-8
Codec ID : S_TEXT/UTF8
Codec ID/Info : UTF-8 Plain Text
Duration : 1 h 54 min
Bit rate : 57 b/s
Frame rate : 0.219 FPS
Count of elements : 1500
Stream size : 48.5 KiB (0%)
Title : SDH
Language : English
Default : No
Forced : No

Menu
00:00:00.000 : en:Глава 01
00:02:54.341 : en:Глава 02
00:11:25.101 : en:Глава 03
00:22:51.787 : en:Глава 04
00:27:22.850 : en:Глава 05
00:32:34.703 : en:Глава 06
00:39:17.230 : en:Глава 07
00:44:56.027 : en:Глава 08
00:51:57.156 : en:Глава 09
00:57:49.716 : en:Глава 10
01:04:41.836 : en:Глава 11
01:10:58.921 : en:Глава 12
01:16:25.664 : en:Глава 13
01:29:20.564 : en:Глава 14
01:43:30.663 : en:Глава 15
01:49:33.817 : en:Глава 16

Другие фильмы
У данной публикации пока нет комментариев.
Будь первым, оставь своё мнение в комментариях!
Информация
Посетители, находящиеся в группе Гости, не могут оставлять комментарии к данной публикации.
Самый популярный релиз недели
Донаты
Мы в соц. сетях / RSS

Лучшие релизы месяца
Лучшие SD недели
Лучшие 720p недели
Лучшие 1080p недели
Лучшие 4K недели
Вы недавно смотрели
Реклама
Последние комментарии
...

Bonzo

14 июня 2024 14:52

...

rmzshka

13 июня 2024 17:48

...

rmzshka

13 июня 2024 12:24

...

LisNick

13 июня 2024 08:45

...

SkySpirit

8 июня 2024 19:54

Реклама