+10

Хочешь или нет? / Tu veux... ou tu veux pas? (2014) BDRip 720p от DoMiNo & селезень | D, P

Информация о фильме
Название: Хочешь или нет?
Оригинальное название: Tu veux... ou tu veux pas?
Год выхода: 2014
Жанр: мелодрама, комедия
Режиссер: Тони Маршалл
В ролях: Софи Марсо, Патрик Брюэль, Андре Вильм, Сильви Вартан, Франсуа Морель, Филипп Леллуш, Жан-Пьер Марьель, Патрик Брауде, Клод Перрон, Паскаль Демолон

О фильме:
Ламбер, раскаявшийся эротоман, пытается искупить свою вину, став семейным консультантом. Вынужденный в течение нескольких месяцев воздерживаться от близкого общения с дамами, он постоянно раздражается по пустякам. Ситуация усложняется, когда к нему на работу устраивается привлекательная и сексапильная Жюдит.

Страна: Франция, Бельгия
Студия: Canal+, Angoa-Agicoa, Orange Cinéma Séries
Продолжительность: 01:27:26
Перевод 1: Дублированный | Лицензия
Перевод 2: Профессиональный (многоголосый, закадровый) | Эй Би Видео (1 канал)
Субтитры: Русские (Full), английские, француские

Файл
Формат: Matroska
Качество: WEB-DLRip 720p
Видео: 1280x534 at 24.000 fps, [email protected], ~3194 kbps
Аудио 1: AC3, 6 ch, ~448 kbps - | Русский | Хочешь или нет? / Tu veux... ou tu veux pas? (2014) BDRip 720p от DoMiNo & селезень | D, P | Лицензия
Аудио 2: AC3, 2 ch, ~192 kbps - | Русский | | Эй Би Видео (1 канал)
Аудио 3: AC3, 6 ch, ~448 kbps - | Французский | | Original
Формат субтитров: softsub (SRT), PGS

Авторизуйтесь для получения доступа к скачиванию

Нет аккаунта? Регистрация открыта и займёт меньше минуты

Вход Регистрация

x264 [info]: frame I: 1086 Avg QP: 17.04 size: 76530
x264 [info]: frame P: 25668 Avg QP: 18.55 size: 31186
x264 [info]: frame B: 99169 Avg QP: 20.10 size: 12211

General
Unique ID: 7711072458129079576518533608554329982 (0×5CD193997BBFE2E213CB4A75B5B777E)
Complete name: R: Tu.veux.ou.tu.veux.pas.2014.BDRip.720p.x264.seleZen.mkv
Format: Matroska
Format version: Version 4
File size: 2.63 GiB
Duration: 1 h 27 min
Overall bit rate: 4 299 kb/s
Frame rate: 24.000 FPS
Movie name: Tu.veux.ou.tu.veux.pas.2014.BDRip.720p.x264.seleZen
Encoded date: 19.09.2023 14:41:35 UTC
Writing application: mkvmerge v79.0 ('Funeral Pyres') 64-bit
Writing library: libebml v1.4.4 + libmatroska v1.7.1
Cover: Yes
Attachments: cover.jpg / small_cover.jpg

Video
ID: 1
Format: AVC
Format/Info: Advanced Video Codec
Format profile: [email protected]
Format settings: CABAC / 12 Ref Frames
Format settings, CABAC: Yes
Format settings, Reference: 12 frames
Codec ID: V_MPEG4/ISO/AVC
Duration: 1 h 27 min
Bit rate: 3 194 kb/s
Width: 1 280 pixels
Height: 534 pixels
Display aspect ratio: 2.40:1
Frame rate mode: Constant
Frame rate: 24.000 FPS
Color space: YUV
Chroma subsampling: 4:2:0
Bit depth: 8 bits
Scan type: Progressive
Bits/(Pixel*Frame): 0.195
Stream size: 1.95 GiB (74%)
Title: -=DoMiNo=-
Writing library: x264 core 164 r3107+58M ae98796 t_mod_New | by -=DoMiNo=- | X86_64]
Encoding settings: cabac=1 / ref=12 / deblock=1:-2:-2 / analyse=0×3:0×133 / me=umh / subme=11 / psy=1 / fade_compensate=0.00 / psy_rd=1.05:0.03 / mixed_ref=1 / me_range=48 / chroma_me=1 / trellis=2 / 8×8dct=1 / cqm=0 / deadzone=21,11 / fast_pskip=0 / chroma_qp_offset=-3 / threads=17 / lookahead_threads=2 / sliced_threads=0 / nr=0 / decimate=1 / interlaced=0 / bluray_compat=0 / constrained_intra=0 / fgo=0 / bframes=9 / b_pyramid=2 / b_adapt=2 / b_bias=0 / direct=3 / weightb=1 / open_gop=0 / weightp=2 / keyint=240 / keyint_min=24 / scenecut=40 / intra_refresh=0 / rc_lookahead=60 / rc=crf / mbtree=0 / crf=19.5000 / qcomp=0.70 / qpmin=0:0:0 / qpmax=69:69:69 / qpstep=4 / vbv_maxrate=50000 / vbv_bufsize=62500 / crf_max=0.0 / nal_hrd=none / filler=0 / ip_ratio=1.35 / pb_ratio=1.25 / aq=3:0.90 / aq-sensitivity=10.00 / aq-factor=1.00:1.00:1.00:1.00 / aq2=0 / aq3=0
Language: French
Default: Yes
Forced: No
Color range: Limited
Color primaries: BT.709
Transfer characteristics: BT.709
Matrix coefficients: BT.709

Audio #1
ID: 2
Format: AC-3
Format/Info: Audio Coding 3
Commercial name: Dolby Digital
Codec ID: A_AC3
Duration: 1 h 27 min
Bit rate mode: Constant
Bit rate: 448 kb/s
Channel (s): 6 channels
Channel layout: L R C LFE Ls Rs
Sampling rate: 48.0 kHz
Frame rate: 31.250 FPS (1536 SPF)
Compression mode: Lossy
Stream size: 280 MiB (10%)
Title: Дублированный (Лицензия)
Language: Russian
Service kind: Complete Main
Default: Yes
Forced: No

Audio #2
ID: 3
Format: AC-3
Format/Info: Audio Coding 3
Commercial name: Dolby Digital
Codec ID: A_AC3
Duration: 1 h 27 min
Bit rate mode: Constant
Bit rate: 192 kb/s
Channel (s): 2 channels
Channel layout: L R
Sampling rate: 48.0 kHz
Frame rate: 31.250 FPS (1536 SPF)
Compression mode: Lossy
Stream size: 120 MiB (4%)
Title: MVO_[Эй Би Видео (1 канал)]
Language: Russian
Service kind: Complete Main
Default: No
Forced: No

Audio #3
ID: 4
Format: AC-3
Format/Info: Audio Coding 3
Commercial name: Dolby Digital
Codec ID: A_AC3
Duration: 1 h 27 min
Bit rate mode: Constant
Bit rate: 448 kb/s
Channel (s): 6 channels
Channel layout: L R C LFE Ls Rs
Sampling rate: 48.0 kHz
Frame rate: 31.250 FPS (1536 SPF)
Compression mode: Lossy
Stream size: 280 MiB (10%)
Title: Original
Language: French
Service kind: Complete Main
Default: No
Forced: No

Text #1
ID: 5
Format: UTF-8
Codec ID: S_TEXT/UTF8
Codec ID/Info: UTF-8 Plain Text
Duration: 1 h 20 min
Bit rate: 130 b/s
Frame rate: 0.250 FPS
Count of elements: 1209
Stream size: 77.0 KiB (0%)
Language: Russian
Default: No
Forced: No

Text #2
ID: 6
Format: UTF-8
Codec ID: S_TEXT/UTF8
Codec ID/Info: UTF-8 Plain Text
Duration: 1 h 20 min
Bit rate: 63 b/s
Frame rate: 0.276 FPS
Count of elements: 1338
Stream size: 37.6 KiB (0%)
Language: English
Default: No
Forced: No

Text #3
ID: 7
Format: PGS
Muxing mode: zlib
Codec ID: S_HDMV/PGS
Codec ID/Info: Picture based subtitle format used on BDs/HD-DVDs
Duration: 1 h 27 min
Bit rate: 36.5 kb/s
Frame rate: 0.541 FPS
Count of elements: 2836
Stream size: 22.8 MiB (1%)
Language: French
Default: No
Forced: No

Menu
00:00:00.000: (Fr: Chapter 01)
00:05:00.790: (Fr: Chapter 02)
00:09:44.665: (Fr: Chapter 03)
00:16:10.875: (Fr: Chapter 04)
00:22:07.333: (Fr: Chapter 05)
00:28:14.250: (Fr: Chapter 06)
00:37:53.125: (Fr: Chapter 07)
00:47:40.958: (Fr: Chapter 08)
00:53:55.458: (Fr: Chapter 09)
00:59:53.333: (Fr: Chapter 10)
01:07:25.833: (Fr: Chapter 11)
01:16:33.082: (Fr: Chapter 12)

Другие фильмы
У данной публикации пока нет комментариев.
Будь первым, оставь своё мнение в комментариях!
Информация
Посетители, находящиеся в группе Гости, не могут оставлять комментарии к данной публикации.
Самый популярный релиз недели
Донаты
Мы в соц. сетях / RSS

Лучшие релизы месяца
Лучшие SD недели
Лучшие 720p недели
Лучшие 1080p недели
Лучшие 4K недели
Вы недавно смотрели
Реклама
Последние комментарии
...

rmzshka

15 мая 2024 13:43

...

Andrey_Vladimirovich

13 мая 2024 18:12

...

Robot

13 мая 2024 16:53

...

rmzshka

13 мая 2024 16:21

...

supermehanik

13 мая 2024 02:03

Реклама