+15

Ван-Пис / One Piece [S01] (2023) WEB-DLRip-AVC от DoMiNo & селезень | D | Red Head Sound

Информация о фильме
Название: Ван-Пис
Оригинальное название: One Piece
Год выхода: 2023
Жанр: приключения, фэнтези, комедия, боевик
Режиссер: Марк Йобст, Тим Соутэм, Эмма Салливан
В ролях: Иньяки Годой, Эмили Радд, Макэню, Арман Окамп, Винсент Риган, Морган Дэвис, Эйдан Скотт, Джейкоб Гибсон, Джефф Уорд, Таз Скайлар и другие

О фильме:
«Ван-Пис» — многосерийная лайв-экшен экранизация знаменитой манги One Piece, которая выходит с 1997 года и постепенно обрела популярность по всему миру. За время своего существования оригинал обзавелся адаптациями в виде аниме-сериала, полнометражных фильмов и выпусков OVA (еще одной вариации аниме), а также нескольких десятков игр. В 2023 году настал черед и для игрового шоу: экранизацией занимался Netflix совместно c Shueisha, издательством оригинальной манги, и Tomorrow Studios, а в продюсеры шоу позвали создателя One Piece Эйитиро Оду. Команда сериала постаралась сохранить дух оригинала, наполненного безудержными приключениями «Пиратов соломенной шляпы», чтобы у поклонников было ощущение, будто любимые герои ожили на самом деле, а зрителей, не знакомых с фэнтезийной вселенной «Ван-Пис», непременно увлек этот мир.

Манки Ди Луффи (Иньяки Годой) во что бы то ни стало намерен найти загадочное сокровище «Ван-Пис», или Большой куш, и стать новым Королем пиратов, ведь прежнего казнили на глазах у всего народа. И пресловутое сокровище некогда спрятал он сам где-то на морских просторах опасного течения Гранд-Лайн. Конечно, желающих отыскать клад немерено, а потому на пути юного Луффи встанут самые матерые и жестокие представители пиратского народа. Однако и у него есть чем ответить конкурентам и Морпехам, которые стремятся избавить мир от пиратов: в детстве Луффи обрел невероятные способности, которые не раз выручали его в схватках.

Страна: США, Япония, ЮАР, Великобритания
Студия: Netflix, Shueisha, Tomorrow Studios
Продолжительность: ~01:00:00 серия
Перевод: Дубляж (неофициальный) — Red Head Sound
Субтитры: Русские (Forced, Full), английские

Файл
Формат: Matroska
Качество: WEB-DLRip-AVC
Видео: 1024×512 at 23.976 fps, [email protected], ~1655 kbps
Аудио: AC3, 6 ch, ~448 kbps — | Русский | Ван-Пис / One Piece [S01] (2023) WEB-DLRip-AVC от DoMiNo & селезень | D | Red Head Sound
Формат субтитров: softsub (SRT)


Авторизуйтесь для получения доступа к скачиванию

Нет аккаунта? Регистрация открыта и займёт меньше минуты

Вход Регистрация

x264 [info]: frame I: 842 Avg QP: 15.07 size: 47321
x264 [info]: frame P: 20057 Avg QP: 17.01 size: 19958
x264 [info]: frame B: 71760 Avg QP: 18.91 size: 5005

General
Unique ID: 126149872004866409858418127199863814700 (0×5EE794E392876F2D4F085D230797BA2C)
Complete name: E: vrmOne.Piece.S01.2023.DUB.NF.WEB-DLRip.x264.seleZenOne.Piece.S01E01.2023.WEB-DLRip.x264.seleZen.mkv
Format: Matroska
Format version: Version 4
File size: 970 MiB
Duration: 1 h 4 min
Overall bit rate: 2 105 kb/s
Frame rate: 23.976 FPS
Movie name: seleZen
Encoded date: 18.09.2023 16:01:16 UTC
Writing application: mkvmerge v79.0 ('Funeral Pyres') 64-bit
Writing library: libebml v1.4.4 + libmatroska v1.7.1
Cover: Yes
Attachments: cover.jpg / small_cover.jpg

Video
ID: 1
Format: AVC
Format/Info: Advanced Video Codec
Format profile: [email protected]
Format settings: CABAC / 10 Ref Frames
Format settings, CABAC: Yes
Format settings, Reference: 10 frames
Codec ID: V_MPEG4/ISO/AVC
Duration: 1 h 4 min
Bit rate: 1 655 kb/s
Width: 1 024 pixels
Height: 512 pixels
Display aspect ratio: 2.000
Frame rate mode: Constant
Frame rate: 23.976 (24000/1001) FPS
Color space: YUV
Chroma subsampling: 4:2:0
Bit depth: 8 bits
Scan type: Progressive
Bits/(Pixel*Frame): 0.132
Stream size: 762 MiB (79%)
Title: -=DoMiNo=-
Writing library: x264 core 164 r3107+58M ae98796 t_mod_New | by -=DoMiNo=- | X86_64]
Encoding settings: cabac=1 / ref=10 / deblock=1:-1:-1 / analyse=0×3:0×133 / me=umh / subme=10 / psy=1 / fade_compensate=0.00 / psy_rd=1.05:0.15 / mixed_ref=1 / me_range=32 / chroma_me=1 / trellis=2 / 8×8dct=1 / cqm=0 / deadzone=21,11 / fast_pskip=0 / chroma_qp_offset=-3 / threads=17 / lookahead_threads=4 / sliced_threads=0 / nr=0 / decimate=1 / interlaced=0 / bluray_compat=0 / constrained_intra=0 / fgo=0 / bframes=14 / b_pyramid=2 / b_adapt=2 / b_bias=0 / direct=3 / weightb=1 / open_gop=0 / weightp=2 / keyint=240 / keyint_min=24 / scenecut=40 / intra_refresh=0 / rc_lookahead=60 / rc=crf / mbtree=0 / crf=18.5000 / qcomp=0.70 / qpmin=0:0:0 / qpmax=69:69:69 / qpstep=4 / vbv_maxrate=50000 / vbv_bufsize=62500 / crf_max=0.0 / nal_hrd=none / filler=0 / ip_ratio=1.30 / pb_ratio=1.30 / aq=1:0.90 / aq-sensitivity=10.00 / aq-factor=1.00:1.00:1.00 / aq2=0 / aq3=0
Language: English
Default: Yes
Forced: No

Audio
ID: 2
Format: AC-3
Format/Info: Audio Coding 3
Commercial name: Dolby Digital
Codec ID: A_AC3
Duration: 1 h 4 min
Bit rate mode: Constant
Bit rate: 448 kb/s
Channel (s): 6 channels
Channel layout: L R C LFE Ls Rs
Sampling rate: 48.0 kHz
Frame rate: 31.250 FPS (1536 SPF)
Compression mode: Lossy
Stream size: 206 MiB (21%)
Title: Red Head Sound
Language: Russian
Service kind: Complete Main
Default: Yes
Forced: No

Text #1
ID: 3
Format: UTF-8
Codec ID: S_TEXT/UTF8
Codec ID/Info: UTF-8 Plain Text
Duration: 59 min 7 s
Bit rate: 1 b/s
Frame rate: 0.005 FPS
Count of elements: 17
Stream size: 790 Bytes (0%)
Title: Forced
Language: Russian
Default: No
Forced: No

Text #2
ID: 4
Format: UTF-8
Codec ID: S_TEXT/UTF8
Codec ID/Info: UTF-8 Plain Text
Duration: 1 h 1 min
Bit rate: 65 b/s
Frame rate: 0.172 FPS
Count of elements: 639
Stream size: 29.6 KiB (0%)
Language: Russian
Default: No
Forced: No

Text #3
ID: 5
Format: UTF-8
Codec ID: S_TEXT/UTF8
Codec ID/Info: UTF-8 Plain Text
Duration: 58 min 58 s
Bit rate: 48 b/s
Frame rate: 0.195 FPS
Count of elements: 691
Stream size: 20.9 KiB (0%)
Language: English
Default: No
Forced: No

Menu
00:00:00.000: en: Part 01
00:59:17.450: en: Credits

Другие фильмы
У данной публикации пока нет комментариев.
Будь первым, оставь своё мнение в комментариях!
Информация
Посетители, находящиеся в группе Гости, не могут оставлять комментарии к данной публикации.
Самый популярный релиз недели
Донаты
Мы в соц. сетях / RSS

Лучшие релизы месяца
Лучшие SD недели
Лучшие 720p недели
Лучшие 1080p недели
Лучшие 4K недели
Вы недавно смотрели
Реклама
Последние комментарии
...

Bonzo

14 июня 2024 14:52

...

rmzshka

13 июня 2024 17:48

...

rmzshka

13 июня 2024 12:24

...

LisNick

13 июня 2024 08:45

...

SkySpirit

8 июня 2024 19:54

Реклама