+14

Два, три, демон, приди! / Поговори со мной / Talk to Me (2022) BDRip 720p от селезень | P

Информация о фильме
Название: Два, три, демон, приди! / Поговори со мной
Оригинальное название: Talk to Me
Год выхода: 2022
Жанр: Ужасы
Режиссер: Дэнни Филиппу, Майкл Филиппу
В ролях: Софи Уайлд, Александра Дженсен, Джо Бёрд, Миранда Отто, Отис Дханджи, Зои Теракс, Крис Алозио, Александрия Стеффенсон, Маркус Джонсон, Санни Джонсон

О фильме:
Среди подростков небольшого австралийского городка набирает популярность необычное развлечение. Нужно зажечь свечу, пожать жутковатую керамическую руку, произнести «Поговори со мной» — и тогда можно увидеть призрака и даже ненадолго впустить его в себя. Несмотря на то что прежний владелец артефакта покончил с собой, ребята на вечеринках радостно балуются необычными способностями руки, пока одним из вызванных призраков не оказывается мама 17-летней Мии, умершая два года назад.

Страна: Австралия, Великобритания
Продолжительность: 01:34:55
Перевод: Профессиональный (многоголосый, закадровый) | Jaskier
Cубтитры: Русские (2 x Full), английские (Full, SDH)

Файл
Формат: Matroska
Качество: BDRip 720p
Видео: 1280x536 at 23.976 fps, [email protected], ~3270 kbps
Аудио 1: AC3, 6 ch, ~384 kbps - | Русский | Два, три, демон, приди! / Поговори со мной / Talk to Me (2022) BDRip 720p от селезень | P | Jaskier
Аудио 2: AC3, 6 ch, ~640 kbps - | Английский | | Original
Формат субтитров: softsub (SRT)

Авторизуйтесь для получения доступа к скачиванию

Нет аккаунта? Регистрация открыта и займёт меньше минуты

Вход Регистрация

General
Unique ID: 237911492360724118936255455397038885210 (0xB2FC16339E5CBDAC4BFC07AFBBD5895A)
Complete name: G: VideoGTalk.to.Me.2022.BDRip.720p.seleZen.mkv
Format: Matroska
Format version: Version 4
File size: 2.85 GiB
Duration: 1 h 34 min
Overall bit rate: 4 296 kb/s
Frame rate: 23.976 FPS
Movie name: Talk to Me 2022 from seleZen
Encoded date: 26.09.2023 12:52:58 UTC
Writing application: mkvmerge v63.0.0 ('Everything') 64-bit
Writing library: libebml v1.4.2 + libmatroska v1.6.4

Video
ID: 1
Format: AVC
Format/Info: Advanced Video Codec
Format profile: [email protected]
Format settings: CABAC / 12 Ref Frames
Format settings, CABAC: Yes
Format settings, Reference frames: 12 frames
Codec ID: V_MPEG4/ISO/AVC
Duration: 1 h 34 min
Bit rate: 3 270 kb/s
Width: 1 280 pixels
Height: 536 pixels
Display aspect ratio: 2.40:1
Frame rate mode: Constant
Frame rate: 23.976 (24000/1001) FPS
Color space: YUV
Chroma subsampling: 4:2:0
Bit depth: 8 bits
Scan type: Progressive
Bits/(Pixel*Frame): 0.199
Stream size: 2.17 GiB (76%)
Title: MTeam
Writing library: x264 core 157 r2938 2b00a84 TnP@MTeam Mod
Encoding settings: cabac=1 / ref=12 / deblock=1:-3:-3 / analyse=0×3:0×133 / me=umh / subme=10 / psy=1 / psy_rd=1.05:0.00 / mixed_ref=1 / me_range=32 / chroma_me=1 / trellis=2 / 8×8dct=1 / cqm=0 / deadzone=21,11 / fast_pskip=0 / chroma_qp_offset=-2 / threads=12 / lookahead_threads=2 / sliced_threads=0 / nr=0 / decimate=0 / interlaced=0 / bluray_compat=0 / constrained_intra=0 / bframes=8 / b_pyramid=2 / b_adapt=2 / b_bias=0 / direct=3 / weightb=1 / open_gop=0 / weightp=2 / keyint=250 / keyint_min=24 / scenecut=40 / intra_refresh=0 / rc_lookahead=250 / rc=crf / mbtree=0 / crf=16.8 / qcomp=0.60 / qpmin=0 / qpmax=69 / qpstep=4 / vbv_maxrate=62500 / vbv_bufsize=78125 / crf_max=0.0 / nal_hrd=none / filler=0 / ip_ratio=1.30 / pb_ratio=1.20 / aq=3:0.80
Language: English
Default: Yes
Forced: No
Color range: Limited
Color primaries: BT.709
Matrix coefficients: BT.709

Audio #1
ID: 2
Format: AC-3
Format/Info: Audio Coding 3
Commercial name: Dolby Digital
Codec ID: A_AC3
Duration: 1 h 34 min
Bit rate mode: Constant
Bit rate: 384 kb/s
Channel (s): 6 channels
Channel layout: L R C LFE Ls Rs
Sampling rate: 48.0 kHz
Frame rate: 31.250 FPS (1536 SPF)
Compression mode: Lossy
Stream size: 260 MiB (9%)
Title: MVO [Jaskier]
Language: Russian
Service kind: Complete Main
Default: Yes
Forced: No

Audio #2
ID: 3
Format: AC-3
Format/Info: Audio Coding 3
Commercial name: Dolby Digital
Codec ID: A_AC3
Duration: 1 h 34 min
Bit rate mode: Constant
Bit rate: 640 kb/s
Channel (s): 6 channels
Channel layout: L R C LFE Ls Rs
Sampling rate: 48.0 kHz
Frame rate: 31.250 FPS (1536 SPF)
Compression mode: Lossy
Stream size: 435 MiB (15%)
Title: Original
Language: English
Service kind: Complete Main
Default: No
Forced: No

Text #1
ID: 4
Format: UTF-8
Codec ID: S_TEXT/UTF8
Codec ID/Info: UTF-8 Plain Text
Duration: 1 h 29 min
Bit rate: 75 b/s
Frame rate: 0.211 FPS
Count of elements: 1134
Stream size: 49.3 KiB (0%)
Title: Full [mixer]
Language: Russian
Default: No
Forced: No

Text #2
ID: 5
Format: UTF-8
Codec ID: S_TEXT/UTF8
Codec ID/Info: UTF-8 Plain Text
Duration: 1 h 29 min
Bit rate: 73 b/s
Frame rate: 0.202 FPS
Count of elements: 1084
Stream size: 48.5 KiB (0%)
Title: Full [Cool Story Blog 18+]
Language: Russian
Default: No
Forced: No

Text #3
ID: 6
Format: UTF-8
Codec ID: S_TEXT/UTF8
Codec ID/Info: UTF-8 Plain Text
Duration: 1 h 33 min
Bit rate: 44 b/s
Frame rate: 0.209 FPS
Count of elements: 1177
Stream size: 30.3 KiB (0%)
Title: Full
Language: English
Default: No
Forced: No

Text #4
ID: 7
Format: UTF-8
Codec ID: S_TEXT/UTF8
Codec ID/Info: UTF-8 Plain Text
Duration: 1 h 33 min
Bit rate: 58 b/s
Frame rate: 0.275 FPS
Count of elements: 1552
Stream size: 40.4 KiB (0%)
Title: SDH
Language: English
Default: No
Forced: No

Menu
00:00:00.000: en: Chapter 01
00:08:22.502: en: Chapter 02
00:14:22.862: en: Chapter 03
00:23:43.422: en: Chapter 04
00:31:21.296: en: Chapter 05
00:39:13.351: en: Chapter 06
00:46:34.500: en: Chapter 07
00:53:17.611: en: Chapter 08
01:02:03.720: en: Chapter 09
01:09:10.146: en: Chapter 10
01:19:04.740: en: Chapter 11
01:24:45.080: en: Chapter 12

Другие фильмы
У данной публикации пока нет комментариев.
Будь первым, оставь своё мнение в комментариях!
Информация
Посетители, находящиеся в группе Гости, не могут оставлять комментарии к данной публикации.
Самый популярный релиз недели
Донаты
Мы в соц. сетях / RSS

Лучшие релизы месяца
Лучшие SD недели
Лучшие 720p недели
Лучшие 1080p недели
Лучшие 4K недели
Вы недавно смотрели
Реклама
Последние комментарии
...

rmzshka

12 июля 2024 11:30

...

Rustik99

12 июля 2024 10:11

...

-=DoMiNo=-

11 июля 2024 23:42

...

rmzshka

11 июля 2024 11:28

...

-=DoMiNo=-

10 июля 2024 15:08

Реклама