+20

Два, три, демон, приди! / Поговори со мной / Talk to Me (2022) HDRip-AVC от DoMiNo & селезень | P

Информация о фильме
Название: Два, три, демон, приди! / Поговори со мной
Оригинальное название: Talk to Me
Год выхода: 2022
Жанр: Ужасы
Режиссер: Дэнни Филиппу, Майкл Филиппу
В ролях: Софи Уайлд, Александра Дженсен, Джо Бёрд, Миранда Отто, Отис Дханджи, Зои Теракс, Крис Алозио, Александрия Стеффенсон, Маркус Джонсон, Санни Джонсон

О фильме:
Группа подростков решает развлечься и во время вечеринки устраивает спиритический сеанс. Миа пытается установить контакт со сверхъестественной силой, преследующей её после смерти матери, но общение с духом оборачивается для всех участников сеанса настоящим кошмаром.

Страна: Австралия, Великобритания
Продолжительность: 01:34:55
Перевод: Профессиональный (многоголосый, закадровый) | Jaskier
Cубтитры: Русские (2 x Full), английские (Full, SDH)

Файл
Формат: Matroska
Качество: HDRip-AVC
Видео: 1024x428 at 24.000 fps, [email protected], ~1821 kbps
Аудио: AC3, 6 ch, ~384 kbps - | Русский | Два, три, демон, приди! / Поговори со мной / Talk to Me (2022) HDRip-AVC от DoMiNo & селезень | P | Jaskier
Формат субтитров: softsub (SRT)

Авторизуйтесь для получения доступа к скачиванию

Нет аккаунта? Регистрация открыта и займёт меньше минуты

Вход Регистрация

x264 [info]: frame I:997 Avg QP:11.82 size: 54258
x264 [info]: frame P:26896 Avg QP:14.16 size: 22840
x264 [info]: frame B:108665 Avg QP:16.22 size: 5772

General
Unique ID : 202060894687995877675588720483578795 (0x26EA5F0B71077CA921D9119B2333AB)
Complete name : I:Talk.to.Me.2022.MVO.x264.seleZen.mkv
Format : Matroska
Format version : Version 4
File size : 1.46 GiB
Duration : 1 h 34 min
Overall bit rate : 2 206 kb/s
Frame rate : 23.976 FPS
Movie name : Talk.to.Me.2022.MVO.x264.seleZen
Encoded date : 2023-09-26 18:36:43 UTC
Writing application : mkvmerge v79.0 ('Funeral Pyres') 64-bit
Writing library : libebml v1.4.4 + libmatroska v1.7.1
Cover : Yes
Attachments : cover.jpg / small_cover.jpg

Video
ID : 1
Format : AVC
Format/Info : Advanced Video Codec
Format profile : [email protected]
Format settings : CABAC / 12 Ref Frames
Format settings, CABAC : Yes
Format settings, Reference : 12 frames
Codec ID : V_MPEG4/ISO/AVC
Duration : 1 h 34 min
Bit rate : 1 821 kb/s
Width : 1 024 pixels
Height : 428 pixels
Display aspect ratio : 2.40:1
Frame rate mode : Constant
Frame rate : 23.976 (24000/1001) FPS
Color space : YUV
Chroma subsampling : 4:2:0
Bit depth : 8 bits
Scan type : Progressive
Bits/(Pixel*Frame) : 0.173
Stream size : 1.21 GiB (83%)
Title : -=DoMiNo=-
Writing library : x264 core 164 r3107+58M ae98796 t_mod_New | by -=DoMiNo=- | X86_64]
Encoding settings : cabac=1 / ref=12 / deblock=1:-2:-2 / analyse=0x3:0x133 / me=umh / subme=10 / psy=1 / fade_compensate=0.00 / psy_rd=1.05:0.05 / mixed_ref=1 / me_range=32 / chroma_me=1 / trellis=2 / 8x8dct=1 / cqm=0 / deadzone=21,11 / fast_pskip=0 / chroma_qp_offset=-3 / threads=16 / lookahead_threads=3 / sliced_threads=0 / nr=0 / decimate=0 / interlaced=0 / bluray_compat=0 / constrained_intra=0 / fgo=0 / bframes=14 / b_pyramid=2 / b_adapt=2 / b_bias=0 / direct=3 / weightb=1 / open_gop=0 / weightp=2 / keyint=240 / keyint_min=24 / scenecut=40 / intra_refresh=0 / rc_lookahead=60 / rc=2pass / mbtree=0 / bitrate=1821 / ratetol=1.0 / qcomp=0.70 / qpmin=0:0:0 / qpmax=69:69:69 / qpstep=4 / cplxblur=20.0 / qblur=0.5 / vbv_maxrate=50000 / vbv_bufsize=62500 / nal_hrd=none / filler=0 / ip_ratio=1.20 / pb_ratio=1.38 / aq=1:0.90 / aq-sensitivity=10.00 / aq-factor=1.00:1.00:1.00 / aq2=0 / aq3=0
Language : English
Default : Yes
Forced : No
Color range : Limited
Color primaries : BT.709
Transfer characteristics : BT.709
Matrix coefficients : BT.709

Audio
ID : 2
Format : AC-3
Format/Info : Audio Coding 3
Commercial name : Dolby Digital
Codec ID : A_AC3
Duration : 1 h 34 min
Bit rate mode : Constant
Bit rate : 384 kb/s
Channel(s) : 6 channels
Channel layout : L R C LFE Ls Rs
Sampling rate : 48.0 kHz
Frame rate : 31.250 FPS (1536 SPF)
Compression mode : Lossy
Stream size : 260 MiB (17%)
Title : MVO [Jaskier]
Language : Russian
Service kind : Complete Main
Default : Yes
Forced : No

Text #1
ID : 3
Format : UTF-8
Codec ID : S_TEXT/UTF8
Codec ID/Info : UTF-8 Plain Text
Duration : 1 h 29 min
Bit rate : 75 b/s
Frame rate : 0.211 FPS
Count of elements : 1134
Stream size : 49.3 KiB (0%)
Title : Full [mixer]
Language : Russian
Default : No
Forced : No

Text #2
ID : 4
Format : UTF-8
Codec ID : S_TEXT/UTF8
Codec ID/Info : UTF-8 Plain Text
Duration : 1 h 29 min
Bit rate : 73 b/s
Frame rate : 0.202 FPS
Count of elements : 1084
Stream size : 48.5 KiB (0%)
Title : Full [Cool Story Blog 18+]
Language : Russian
Default : No
Forced : No

Text #3
ID : 5
Format : UTF-8
Codec ID : S_TEXT/UTF8
Codec ID/Info : UTF-8 Plain Text
Duration : 1 h 33 min
Bit rate : 44 b/s
Frame rate : 0.209 FPS
Count of elements : 1177
Stream size : 30.3 KiB (0%)
Title : Full
Language : English
Default : No
Forced : No

Text #4
ID : 6
Format : UTF-8
Codec ID : S_TEXT/UTF8
Codec ID/Info : UTF-8 Plain Text
Duration : 1 h 33 min
Bit rate : 58 b/s
Frame rate : 0.275 FPS
Count of elements : 1552
Stream size : 40.4 KiB (0%)
Title : SDH
Language : English
Default : No
Forced : No

Menu
00:00:00.000 : en:Chapter 01
00:08:22.502 : en:Chapter 02
00:14:22.862 : en:Chapter 03
00:23:43.422 : en:Chapter 04
00:31:21.296 : en:Chapter 05
00:39:13.351 : en:Chapter 06
00:46:34.500 : en:Chapter 07
00:53:17.611 : en:Chapter 08
01:02:03.720 : en:Chapter 09
01:09:10.146 : en:Chapter 10
01:19:04.740 : en:Chapter 11
01:24:45.080 : en:Chapter 12

Другие фильмы
Комментарии:

...
cobralan 14 сентября 2023 09:23
+2

Быдлячий перевод- это просто мерзко!

Информация
Посетители, находящиеся в группе Гости, не могут оставлять комментарии к данной публикации.
Самый популярный релиз недели
Донаты
Мы в соц. сетях / RSS

Лучшие релизы месяца
Лучшие SD недели
Лучшие 720p недели
Лучшие 1080p недели
Лучшие 4K недели
Вы недавно смотрели
Реклама
Последние комментарии
...

Bonzo

14 июня 2024 14:52

...

rmzshka

13 июня 2024 17:48

...

rmzshka

13 июня 2024 12:24

...

LisNick

13 июня 2024 08:45

...

SkySpirit

8 июня 2024 19:54

Реклама