+24

Луна / Deo mun / The Moon (2023) BDRip 720p от DoMiNo & селезень | D, P | Локализованная версия

Информация о фильме
Название: Луна
Оригинальное название: Deo mun / The Moon
Год выпуска: 2023
Жанр: Фантастика, драма
Режиссер: Ким Ён-хва / Kim Yong-hwa
В ролях: Соль Гён Гу, То Гён Су, Хи Ким Э, Пак Пён Ын, Чо Хан Чхоль, Чхве Бён Мо, Ли Сон Мин, Ким Рэ Вон, И Кен Ли, Чхве Джон У, Джина Тереза Уильямсон, Джек Лайонс, Сын Хи Хон, Чжо Сын Юн, Щим Ён Ын, Лора Фитч Янг

О фильме:
2029 год. Южная Корея отправляет на Луну трех астронавтов, но из-за вспышки на солнце он терпит крушение. В живых остаётся лишь один член экипажа, которому удается высадиться на обратной стороне Луны. Все силы NASA и лучших специалистов Земли направлены на спасение его жизни. Теперь весь мир, затаив дыхание, следит за попытками спасти молодого астронавта, который борется за жизнь под непрекращающимся метеоритным дождем.

Страна: Корея Южная
Студия: BLAAD Studios, CJ Entertainment
Продолжительность: 02:09:22
Перевод 1: Дублированный | Мосфильм-Мастер
Перевод 2: Профессиональный (многоголосый, закадровый) | TVShows
Субтитры: Русские (Forced, Full), Английские

Файл
Формат: Matroska
Качество: BDRip 720p | Локализованная версия
Исходник: The.Moon.2023.BDRemux.1080p.pk
Видео: 1280x674 at 23.976 fps, [email protected], ~4331 kbps
Аудио 1: AC3, 6 ch, ~384 kbps - | Русский | Луна / Deo mun / The Moon (2023) BDRip 720p от DoMiNo & селезень | D, P | Локализованная версия | Мосфильм-Мастер
Аудио 2: AC3, 2 ch, ~192 kbps - | Русский | | TVShows
Аудио 3: AC3, 6 ch, ~640 kbps - | Корейский | Original
Формат субтитров: softsub (SRT)

Авторизуйтесь для получения доступа к скачиванию

Нет аккаунта? Регистрация открыта и займёт меньше минуты

Вход Регистрация

General
Unique ID: 277370343504377448456169018998520122752 (0xD0AB95C4221AA37DE089BBA492358D80)
Complete name: S: Deo.mun.2023.DUB.MVO.BDRip.720p.x264.seleZen.mkv
Format: Matroska
Format version: Version 4
File size: 5.01 GiB
Duration: 2 h 9 min
Overall bit rate: 5 550 kb/s
Frame rate: 23.976 FPS
Movie name: Deo.mun.2023.DUB.MVO.BDRip.720p.x264.seleZen
Encoded date: 17.02.2024 17:18:54 UTC
Writing application: mkvmerge v82.0 ('I’m The President') 64-bit
Writing library: libebml v1.4.5 + libmatroska v1.7.1
Cover: Yes
Attachments: cover.jpg / small_cover.jpg

Video
ID: 1
Format: AVC
Format/Info: Advanced Video Codec
Format profile: [email protected]
Format settings: CABAC / 9 Ref Frames
Format settings, CABAC: Yes
Format settings, Reference: 9 frames
Codec ID: V_MPEG4/ISO/AVC
Duration: 2 h 9 min
Bit rate: 4 331 kb/s
Width: 1 280 pixels
Height: 674 pixels
Display aspect ratio: 1.899
Frame rate mode: Constant
Frame rate: 23.976 (24000/1001) FPS
Color space: YUV
Chroma subsampling: 4:2:0
Bit depth: 8 bits
Scan type: Progressive
Bits/(Pixel*Frame): 0.209
Stream size: 3.91 GiB (78%)
Title: -=DoMiNo=-
Writing library: x264 core 164 r3156+57M dac90dd t_mod_New [(8 & 10)-DoMiNo- X86_64]
Encoding settings: cabac=1 / ref=9 / deblock=1:-2:-2 / analyse=0×3:0×133 / me=umh / subme=10 / psy=1 / fade_compensate=0.00 / psy_rd=1.05:0.03 / mixed_ref=1 / me_range=32 / chroma_me=1 / trellis=2 / 8×8dct=1 / cqm=0 / deadzone=21,11 / fast_pskip=0 / chroma_qp_offset=-3 / threads=21 / lookahead_threads=5 / sliced_threads=0 / nr=0 / decimate=0 / interlaced=0 / bluray_compat=0 / constrained_intra=0 / fgo=0 / bframes=12 / b_pyramid=2 / b_adapt=2 / b_bias=0 / direct=1 / weightb=1 / open_gop=0 / weightp=2 / keyint=250 / keyint_min=23 / scenecut=40 / intra_refresh=0 / rc_lookahead=60 / rc=crf / mbtree=0 / crf=17.3000 / qcomp=0.60 / qpmin=0:0:0 / qpmax=69:69:69 / qpstep=4 / vbv_maxrate=50000 / vbv_bufsize=62500 / crf_max=0.0 / nal_hrd=none / filler=0 / ip_ratio=1.40 / pb_ratio=1.30 / aq=3:0.80 / aq-sensitivity=10.00 / aq-factor=1.00:1.00:1.00:1.00 / aq2=0 / aq3=0
Language: English
Default: Yes
Forced: No
Color range: Limited
Color primaries: BT.709
Transfer characteristics: BT.709
Matrix coefficients: BT.709

Audio #1
ID: 2
Format: AC-3
Format/Info: Audio Coding 3
Commercial name: Dolby Digital
Codec ID: A_AC3
Duration: 2 h 9 min
Bit rate mode: Constant
Bit rate: 384 kb/s
Channel (s): 6 channels
Channel layout: L R C LFE Ls Rs
Sampling rate: 48.0 kHz
Frame rate: 31.250 FPS (1536 SPF)
Compression mode: Lossy
Stream size: 355 MiB (7%)
Title: Russian Dub Мосфильм-Мастер
Language: Russian
Service kind: Complete Main
Default: Yes
Forced: No

Audio #2
ID: 3
Format: AC-3
Format/Info: Audio Coding 3
Commercial name: Dolby Digital
Codec ID: A_AC3
Duration: 2 h 9 min
Bit rate mode: Constant
Bit rate: 192 kb/s
Channel (s): 2 channels
Channel layout: L R
Sampling rate: 48.0 kHz
Frame rate: 31.250 FPS (1536 SPF)
Compression mode: Lossy
Stream size: 177 MiB (3%)
Title: Russian MVO TVShows
Language: Russian
Service kind: Complete Main
Default: No
Forced: No

Audio #3
ID: 4
Format: AC-3
Format/Info: Audio Coding 3
Commercial name: Dolby Digital
Format settings: Dolby Surround EX
Codec ID: A_AC3
Duration: 2 h 9 min
Bit rate mode: Constant
Bit rate: 640 kb/s
Channel (s): 6 channels
Channel layout: L R C LFE Ls Rs
Sampling rate: 48.0 kHz
Frame rate: 31.250 FPS (1536 SPF)
Compression mode: Lossy
Stream size: 592 MiB (12%)
Title: Korean Original
Language: Korean
Service kind: Complete Main
Default: No
Forced: No

Text #1
ID: 5
Format: UTF-8
Codec ID: S_TEXT/UTF8
Codec ID/Info: UTF-8 Plain Text
Duration: 1 h 45 min
Bit rate: 3 b/s
Frame rate: 0.005 FPS
Count of elements: 34
Stream size: 2.64 KiB (0%)
Title: Russian forced
Language: Russian
Default: No
Forced: No

Text #2
ID: 6
Format: UTF-8
Codec ID: S_TEXT/UTF8
Codec ID/Info: UTF-8 Plain Text
Duration: 2 h 3 min
Bit rate: 110 b/s
Frame rate: 0.189 FPS
Count of elements: 1399
Stream size: 99.5 KiB (0%)
Title: Russian full
Language: Russian
Default: No
Forced: No

Text #3
ID: 7
Format: UTF-8
Codec ID: S_TEXT/UTF8
Codec ID/Info: UTF-8 Plain Text
Duration: 2 h 4 min
Bit rate: 58 b/s
Frame rate: 0.213 FPS
Count of elements: 1590
Stream size: 53.8 KiB (0%)
Title: English full
Language: English
Default: No
Forced: No

Menu
00:00:00.000: Chapter 01
00:10:54.570: Chapter 02
00:21:16.482: Chapter 03
00:34:26.481: Chapter 04
00:43:02.288: Chapter 05
00:53:14.858: Chapter 06
01:06:38.619: Chapter 07
01:16:26.206: Chapter 08
01:30:55.658: Chapter 09
01:45:03.421: Chapter 10
01:54:48.715: Chapter 11
02:05:04.872: Chapter 12
02:09:21.627: Chapter 13

Другие фильмы
У данной публикации пока нет комментариев.
Будь первым, оставь своё мнение в комментариях!
Информация
Посетители, находящиеся в группе Гости, не могут оставлять комментарии к данной публикации.
Самый популярный релиз недели
Донаты
Мы в соц. сетях / RSS

Лучшие релизы месяца
Лучшие SD недели
Лучшие 720p недели
Лучшие 1080p недели
Лучшие 4K недели
Вы недавно смотрели
Реклама
Последние комментарии
...

-=DoMiNo=-

9 апреля 2024 17:43

...

supermehanik

9 апреля 2024 16:22

...

selezinka

5 апреля 2024 16:20

...

Kirk1991

30 марта 2024 15:04

...

Robot

22 марта 2024 09:33

Реклама