+14

Барби / Barbie (2023) WEB-DL 1080p от селезень | D

Информация о фильме
Название: Барби
Оригинальное название: Barbie
Год выхода: 2023
Жанр: комедия, приключения, фэнтези
Режиссер: Грета Гервиг
В ролях: Марго Робби, Райан Гослинг, Америка Феррера, Ариана Гринблатт, Кейт МакКиннон, Исса Рэй, Ри Перлман, Уилл Феррелл, Майкл Сера, Симу Лю

О фильме: Барби выгоняют из Барбиленда, потому что она не соответствует его нормам красоты. Тогда она начинает новую жизнь в реальном мире, где обнаруживает, что совершенства можно достичь только благодаря внутренней гармонии.

Страна: США, Великобритания
Студия: Heyday Films, LuckyChap Entertainment, Mattel Films, Mattel Inc., Warner Bros.
Продолжительность: 01:54:00
Перевод: Дублированный | Bravo Records Georgia / Movie Dubbing

Качество: WEB-DL 1080p
Видео: MPEG-4 AVC, 1920x1080, 5773 Kbit/s, 23.976 fps
Аудио #01: 48 kHz, AC3, 5.1, 384 Kbps | Дублированный | Bravo Records Georgia / Movie Dubbing | RUS |Барби / Barbie (2023) WEB-DL 1080p от селезень | D
Аудио #02: 48 kHz, E-AC3, 5.1, 384 Kbps | Дублированный | Bravo Records Georgia / Movie Dubbing | RUS |
Аудио #03: 48 kHz, E-AC3, 5.1, 384 Kbps | Оригинал | ENG |
Субтитры: Русские (Forced, full), английские

Барби / Barbie (2023) WEB-DL 1080p от селезень | D

Авторизуйтесь для получения доступа к скачиванию

Нет аккаунта? Регистрация открыта и займёт меньше минуты

Вход Регистрация

General
Unique ID : 267353551969549776319172363851638399393 (0xC9226BD054FFE70DCF9B27791CA261A1)
Complete name : G:\VideoG\Barbie.2023.WEB-DL.1080p.seleZen.mkv
Format : Matroska
Format version : Version 4
File size : 5.52 GiB
Duration : 1 h 54 min
Overall bit rate : 6 928 kb/s
Frame rate : 23.976 FPS
Movie name : Barbie 2023 from seleZen
Encoded date : 2023-09-11 12:34:48 UTC
Writing application : mkvmerge v63.0.0 ('Everything') 64-bit
Writing library : libebml v1.4.2 + libmatroska v1.6.4

Video
ID : 1
Format : AVC
Format/Info : Advanced Video Codec
Format profile : High@L4
Format settings : CABAC / 2 Ref Frames
Format settings, CABAC : Yes
Format settings, Reference : 2 frames
Codec ID : V_MPEG4/ISO/AVC
Duration : 1 h 54 min
Bit rate : 5 773 kb/s
Width : 1 920 pixels
Height : 1 080 pixels
Display aspect ratio : 16:9
Frame rate mode : Constant
Frame rate : 23.976 (24000/1001) FPS
Color space : YUV
Chroma subsampling : 4:2:0
Bit depth : 8 bits
Scan type : Progressive
Bits/(Pixel*Frame) : 0.116
Stream size : 4.60 GiB (83%)
Writing library : x264 core 155 r2901 7d0ff22
Language : English
Default : Yes
Forced : No
Color range : Limited
Color primaries : BT.709
Transfer characteristics : BT.709
Matrix coefficients : BT.709

Audio #1
ID : 2
Format : AC-3
Format/Info : Audio Coding 3
Commercial name : Dolby Digital
Codec ID : A_AC3
Duration : 1 h 54 min
Bit rate mode : Constant
Bit rate : 384 kb/s
Channel(s) : 6 channels
Channel layout : L R C LFE Ls Rs
Sampling rate : 48.0 kHz
Frame rate : 31.250 FPS (1536 SPF)
Compression mode : Lossy
Stream size : 313 MiB (6%)
Title : Dub
Language : Russian
Service kind : Complete Main
Default : Yes
Forced : Yes

Audio #2
ID : 3
Format : E-AC-3
Format/Info : Enhanced AC-3
Commercial name : Dolby Digital Plus
Codec ID : A_EAC3
Duration : 1 h 54 min
Bit rate mode : Constant
Bit rate : 384 kb/s
Channel(s) : 6 channels
Channel layout : L R C LFE Ls Rs
Sampling rate : 48.0 kHz
Frame rate : 31.250 FPS (1536 SPF)
Compression mode : Lossy
Stream size : 313 MiB (6%)
Title : Dub
Language : Russian
Service kind : Complete Main
Default : No
Forced : No

Audio #3
ID : 4
Format : E-AC-3
Format/Info : Enhanced AC-3
Commercial name : Dolby Digital Plus
Codec ID : A_EAC3
Duration : 1 h 54 min
Bit rate mode : Constant
Bit rate : 384 kb/s
Channel(s) : 6 channels
Channel layout : L R C LFE Ls Rs
Sampling rate : 48.0 kHz
Frame rate : 31.250 FPS (1536 SPF)
Compression mode : Lossy
Stream size : 313 MiB (6%)
Title : English
Language : English
Service kind : Complete Main
Default : No
Forced : No

Text #1
ID : 5
Format : UTF-8
Codec ID : S_TEXT/UTF8
Codec ID/Info : UTF-8 Plain Text
Duration : 1 h 51 min
Bit rate : 12 b/s
Frame rate : 0.035 FPS
Count of elements : 236
Stream size : 9.83 KiB (0%)
Title : Forced
Language : Russian
Default : Yes
Forced : No

Text #2
ID : 6
Format : UTF-8
Codec ID : S_TEXT/UTF8
Codec ID/Info : UTF-8 Plain Text
Duration : 1 h 52 min
Bit rate : 108 b/s
Frame rate : 0.288 FPS
Count of elements : 1947
Stream size : 89.6 KiB (0%)
Title : Full
Language : Russian
Default : No
Forced : No

Text #3
ID : 7
Format : UTF-8
Codec ID : S_TEXT/UTF8
Codec ID/Info : UTF-8 Plain Text
Duration : 1 h 51 min
Bit rate : 102 b/s
Frame rate : 0.379 FPS
Count of elements : 2541
Stream size : 83.6 KiB (0%)
Title : English
Language : English
Default : No
Forced : No

Другие фильмы
У данной публикации пока нет комментариев.
Будь первым, оставь своё мнение в комментариях!
Информация
Посетители, находящиеся в группе Гости, не могут оставлять комментарии к данной публикации.
Самый популярный релиз недели
Донаты
Мы в соц. сетях / RSS

Лучшие релизы месяца
Лучшие SD недели
Лучшие 720p недели
Лучшие 1080p недели
Лучшие 4K недели
Вы недавно смотрели
Реклама
Последние комментарии
...

Bonzo

14 июня 2024 14:52

...

rmzshka

13 июня 2024 17:48

...

rmzshka

13 июня 2024 12:24

...

LisNick

13 июня 2024 08:45

...

SkySpirit

8 июня 2024 19:54

Реклама