+16

Корабль призраков / Haunting of the Queen Mary (2023) BDRip 720p от DoMiNo & селезень | D

Информация о фильме
Название: Корабль призраков
Оригинальное название: Haunting of the Queen Mary
Год выхода: 2023
Жанр: Ужасы, драма
Режиссер: Гари Шор
В ролях: Элис Ив, Джоэль Фрай, Нелл Хадсон, Ленни Раш, Уильям Шокли, Тим Дауни, Энгус Райт, Джим Пиддок, Джоэль Коисси, Марк Силверман, Альфредо Таварес

О фильме:
О трансатлантическом лайнере «Королева Мэри» ходит множество легенд, и увлечённый историями о призраках маленький Лукас с мамой поднимается на борт стоящего в Лонг-Бич судна, которое теперь служит отелем и развлечением для туристов. Пока мама занята своими делами, ребёнок отправляется на экскурсию и пропадает. Чтобы спасти сына, родителям предстоит разобраться в зловещих тайнах лайнера, а тем временем жуткие события 1938 года переплетаются с настоящим.

Страна: США, Великобритания
Студия: BCP Asset Management, Creativity Capital, Fulwell 73
Продолжительность: 02:04:55
Перевод: Дублированный | Мосфильм-Мастер
Субтитры: Русские (Forced, Full), Английские (Full, SDH)

Файл
Формат: Matroska
Качество: BDRip 720p
Видео: 1280x640 at 23.976 fps, MPEG-4 AVC, ~3720 kbps
Аудио 1: AC3, 6 ch, ~448 kbps - | Русский | Корабль призраков / Haunting of the Queen Mary (2023) BDRip 720p от DoMiNo & селезень | D
Аудио 2: AC3, 6 ch, ~448 kbps - | Английский |
Формат субтитров: softsub (SRT)

Авторизуйтесь для получения доступа к скачиванию

Нет аккаунта? Регистрация открыта и займёт меньше минуты

Вход Регистрация

General
Unique ID: 95327012010101940638693133955790800088 (0×47B7508FC7E5F301AC723BC4446404D8)
Complete name: T: Haunting.of.the.Queen.Mary.2023.DUB.BDRip.720p.x264.seleZen.mkv
Format: Matroska
Format version: Version 4
File size: 4.03 GiB
Duration: 2 h 5 min
Overall bit rate: 4 614 kb/s
Frame rate: 23.976 FPS
Movie name: Haunting.of.the.Queen.Mary.2023.DUB.BDRip.720p.x264.seleZen
Encoded date: 29.03.2024 20:25:42 UTC
Writing application: mkvmerge v83.0 ('Circle Of Friends') 64-bit
Writing library: libebml v1.4.5 + libmatroska v1.7.1
Cover: Yes
Attachments: cover.jpg / small_cover.jpg

Video
ID: 1
Format: AVC
Format/Info: Advanced Video Codec
Format profile: [email protected]
Format settings: CABAC / 10 Ref Frames
Format settings, CABAC: Yes
Format settings, Reference: 10 frames
Codec ID: V_MPEG4/ISO/AVC
Duration: 2 h 4 min
Bit rate: 3 720 kb/s
Width: 1 280 pixels
Height: 640 pixels
Display aspect ratio: 2.000
Frame rate mode: Constant
Frame rate: 23.976 (24000/1001) FPS
Color space: YUV
Chroma subsampling: 4:2:0
Bit depth: 8 bits
Scan type: Progressive
Bits/(Pixel*Frame): 0.189
Stream size: 3.25 GiB (81%)
Title: -=DoMiNo=-
Writing library: x264 core 164 r3190 -DoMiNo
Encoding settings: cabac=1 / ref=10 / deblock=1:-2:-2 / analyse=0×3:0×133 / me=umh / subme=10 / psy=1 / psy_rd=1.05:0.04 / mixed_ref=1 / me_range=32 / chroma_me=1 / trellis=2 / 8×8dct=1 / cqm=0 / deadzone=21,11 / fast_pskip=0 / chroma_qp_offset=-3 / threads=20 / lookahead_threads=3 / sliced_threads=0 / nr=0 / decimate=0 / interlaced=0 / bluray_compat=0 / constrained_intra=0 / bframes=9 / b_pyramid=2 / b_adapt=2 / b_bias=0 / direct=1 / weightb=1 / open_gop=0 / weightp=2 / keyint=240 / keyint_min=23 / scenecut=40 / intra_refresh=0 / rc_lookahead=60 / rc=crf / mbtree=0 / crf=15.0 / qcomp=0.60 / qpmin=0 / qpmax=69 / qpstep=4 / vbv_maxrate=50000 / vbv_bufsize=62500 / crf_max=0.0 / nal_hrd=none / filler=0 / ip_ratio=1.40 / pb_ratio=1.30 / aq=3:0.80
Language: English
Default: Yes
Forced: No
Color range: Limited
Color primaries: BT.709
Transfer characteristics: BT.709
Matrix coefficients: BT.709

Audio #1
ID: 2
Format: AC-3
Format/Info: Audio Coding 3
Commercial name: Dolby Digital
Codec ID: A_AC3
Duration: 2 h 5 min
Bit rate mode: Constant
Bit rate: 448 kb/s
Channel (s): 6 channels
Channel layout: L R C LFE Ls Rs
Sampling rate: 48.0 kHz
Frame rate: 31.250 FPS (1536 SPF)
Compression mode: Lossy
Stream size: 401 MiB (10%)
Title: Дублированный | Мосфильм-Мастер
Language: Russian
Service kind: Complete Main
Default: Yes
Forced: No

Audio #2
ID: 3
Format: AC-3
Format/Info: Audio Coding 3
Commercial name: Dolby Digital
Codec ID: A_AC3
Duration: 2 h 4 min
Bit rate mode: Constant
Bit rate: 448 kb/s
Channel (s): 6 channels
Channel layout: L R C LFE Ls Rs
Sampling rate: 48.0 kHz
Frame rate: 31.250 FPS (1536 SPF)
Compression mode: Lossy
Stream size: 400 MiB (10%)
Title: Original
Language: English
Service kind: Complete Main
Default: No
Forced: No

Text #1
ID: 4
Format: UTF-8
Codec ID: S_TEXT/UTF8
Codec ID/Info: UTF-8 Plain Text
Duration: 1 h 54 min
Bit rate: 1 b/s
Frame rate: 0.004 FPS
Count of elements: 25
Stream size: 1.16 KiB (0%)
Title: Forced
Language: Russian
Default: No
Forced: No

Text #2
ID: 5
Format: UTF-8
Codec ID: S_TEXT/UTF8
Codec ID/Info: UTF-8 Plain Text
Duration: 1 h 55 min
Bit rate: 78 b/s
Frame rate: 0.204 FPS
Count of elements: 1416
Stream size: 66.3 KiB (0%)
Title: Full
Language: Russian
Default: No
Forced: No

Text #3
ID: 6
Format: UTF-8
Codec ID: S_TEXT/UTF8
Codec ID/Info: UTF-8 Plain Text
Duration: 1 h 54 min
Bit rate: 48 b/s
Frame rate: 0.194 FPS
Count of elements: 1335
Stream size: 40.4 KiB (0%)
Title: Full
Language: English
Default: No
Forced: No

Text #4
ID: 7
Format: UTF-8
Codec ID: S_TEXT/UTF8
Codec ID/Info: UTF-8 Plain Text
Duration: 1 h 56 min
Bit rate: 63 b/s
Frame rate: 0.267 FPS
Count of elements: 1862
Stream size: 54.1 KiB (0%)
Title: SDH
Language: English
Default: No
Forced: No

Menu
00:00:00.000: en: Chapter 01
00:12:55.399: en: Chapter 02
00:22:51.953: en: Chapter 03
00:31:40.023: en: Chapter 04
00:43:37.823: en: Chapter 05
00:54:13.750: en: Chapter 06
01:05:25.421: en: Chapter 07
01:14:28.297: en: Chapter 08
01:24:07.792: en: Chapter 09
01:33:24.640: en: Chapter 10
01:47:44.666: en: Chapter 11
01:56:12.298: en: Chapter 12

Другие фильмы
У данной публикации пока нет комментариев.
Будь первым, оставь своё мнение в комментариях!
Информация
Посетители, находящиеся в группе Гости, не могут оставлять комментарии к данной публикации.
Самый популярный релиз недели
Донаты
Мы в соц. сетях / RSS

Лучшие релизы месяца
Лучшие SD недели
Лучшие 720p недели
Лучшие 1080p недели
Лучшие 4K недели
Вы недавно смотрели
Реклама
Последние комментарии
...

rmzshka

12 июля 2024 11:30

...

Rustik99

12 июля 2024 10:11

...

-=DoMiNo=-

11 июля 2024 23:42

...

rmzshka

11 июля 2024 11:28

...

-=DoMiNo=-

10 июля 2024 15:08

Реклама