+8

Моё преступление / Mon crime / The Crime Is Mine (2023) BDRip 720p от селезень | D

Информация о фильме
Название: Моё преступление
Оригинальное название: Mon crime / The Crime Is Mine
Жанр: комедия, драма, криминал, детектив
Год выпуска: 2023
Режиссер: Франсуа Озон / Francois Ozon
В ролях: Надя Терешкевич, Ребекка Мардер, Изабель Юппер, Фабрис Лукини, Дэни Бун, Андре Дюссолье, Эдуар Сюльпис, Режис Лапале, Оливье Брош, Феликс Лефевр

Описание:
Париж, 1930-е годы. Мадлен Вердье — молодая, красивая, но не слишком талантливая актриса на мели — обвиняется в убийстве известного продюсера. Суд оправдывает её благодаря подруге-адвокату Полин, и Мадлен ждёт новая жизнь в лучах славы и успеха. Пока всё тайное не становится явным.

Страна: Франция
Студия: Mandarin Cinéma, FOZ, Gaumont
Продолжительность: 01:42:53
Перевод: Дублированный | СиПиАй Филмз / CPI Films
Субтитры: Русские (Forced, full), английские, французские

Файл
Формат: Matroska
Качество: BDRip 720p
Видео: 1280x536 at 24.000 fps, [email protected], ~3619 kbps
Аудио 1: AC3, 6 ch, ~640 kbps - | Русский | Моё преступление / Mon crime / The Crime Is Mine (2023) BDRip 720p от селезень | D
Аудио 2: E-AC3, 6 ch, ~384 kbps - | Русский |
Аудио 3: AC3, 6 ch, ~640 kbps - | Французский |
Формат субтитров: softsub (SRT)

Авторизуйтесь для получения доступа к скачиванию

Нет аккаунта? Регистрация открыта и займёт меньше минуты

Вход Регистрация

General
Unique ID : 26123178246132337779656242667659083087 (0x13A724209DABACA073445EBF96323D4F)
Complete name : G:VideoGMon.crime.a.k.a.The.Crime.Is.Mine.2023.BDRip.720p.seleZen.mkv
Format : Matroska
Format version : Version 4
File size : 3.80 GiB
Duration : 1 h 42 min
Overall bit rate : 5 286 kb/s
Frame rate : 24.000 FPS
Movie name : Mon crime a.k.a The Crime Is Mine 2023 from seleZen
Encoded date : 2023-09-17 20:24:28 UTC
Writing application : mkvmerge v63.0.0 ('Everything') 64-bit
Writing library : libebml v1.4.2 + libmatroska v1.6.4

Video
ID : 1
Format : AVC
Format/Info : Advanced Video Codec
Format profile : [email protected]
Format settings : CABAC / 12 Ref Frames
Format settings, CABAC : Yes
Format settings, Reference : 12 frames
Codec ID : V_MPEG4/ISO/AVC
Duration : 1 h 42 min
Bit rate : 3 619 kb/s
Width : 1 280 pixels
Height : 536 pixels
Display aspect ratio : 2.40:1
Frame rate mode : Constant
Frame rate : 24.000 FPS
Color space : YUV
Chroma subsampling : 4:2:0
Bit depth : 8 bits
Scan type : Progressive
Bits/(Pixel*Frame) : 0.220
Stream size : 2.60 GiB (68%)
Writing library : x264 core 164 r3099+55M seleZen t_mod_New [(8 & 10)-bit@all X86_64]
Encoding settings : cabac=1 / ref=12 / deblock=1:-2:-2 / analyse=0x3:0x133 / me=umh / subme=10 / psy=1 / fade_compensate=0.00 / psy_rd=1.02:0.04 / mixed_ref=1 / me_range=32 / chroma_me=1 / trellis=2 / 8x8dct=1 / cqm=0 / deadzone=21,11 / fast_pskip=0 / chroma_qp_offset=-3 / threads=17 / lookahead_threads=2 / sliced_threads=0 / nr=0 / decimate=0 / interlaced=0 / bluray_compat=0 / constrained_intra=0 / fgo=0 / bframes=9 / b_pyramid=2 / b_adapt=2 / b_bias=0 / direct=1 / weightb=1 / open_gop=0 / weightp=2 / keyint=240 / keyint_min=24 / scenecut=40 / intra_refresh=0 / rc_lookahead=60 / rc=crf / mbtree=0 / crf=17.8000 / qcomp=0.60 / qpmin=0:0:0 / qpmax=51:51:51 / qpstep=4 / vbv_maxrate=50000 / vbv_bufsize=62500 / crf_max=0.0 / nal_hrd=none / filler=0 / ip_ratio=1.40 / pb_ratio=1.30 / aq=3:0.80 / aq-sensitivity=10.00 / aq-factor=1.00:1.00:1.00 / aq2=0 / aq3=0
Language : English
Default : Yes
Forced : No

Audio #1
ID : 2
Format : AC-3
Format/Info : Audio Coding 3
Commercial name : Dolby Digital
Codec ID : A_AC3
Duration : 1 h 42 min
Bit rate mode : Constant
Bit rate : 640 kb/s
Channel(s) : 6 channels
Channel layout : L R C LFE Ls Rs
Sampling rate : 48.0 kHz
Frame rate : 31.250 FPS (1536 SPF)
Compression mode : Lossy
Stream size : 471 MiB (12%)
Title : Dub [KION] - without overcompression
Language : Russian
Service kind : Complete Main
Default : Yes
Forced : No

Audio #2
ID : 3
Format : E-AC-3
Format/Info : Enhanced AC-3
Commercial name : Dolby Digital Plus
Codec ID : A_EAC3
Duration : 1 h 42 min
Bit rate mode : Constant
Bit rate : 384 kb/s
Channel(s) : 6 channels
Channel layout : L R C LFE Ls Rs
Sampling rate : 48.0 kHz
Frame rate : 31.250 FPS (1536 SPF)
Compression mode : Lossy
Stream size : 283 MiB (7%)
Title : Dub [OKKO] - without overcompression
Language : Russian
Service kind : Complete Main
Default : No
Forced : No

Audio #3
ID : 4
Format : AC-3
Format/Info : Audio Coding 3
Commercial name : Dolby Digital
Codec ID : A_AC3
Duration : 1 h 42 min
Bit rate mode : Constant
Bit rate : 640 kb/s
Channel(s) : 6 channels
Channel layout : L R C LFE Ls Rs
Sampling rate : 48.0 kHz
Frame rate : 31.250 FPS (1536 SPF)
Compression mode : Lossy
Stream size : 471 MiB (12%)
Title : Original
Language : French
Service kind : Complete Main
Default : No
Forced : No

Text #1
ID : 5
Format : UTF-8
Codec ID : S_TEXT/UTF8
Codec ID/Info : UTF-8 Plain Text
Duration : 1 h 22 min
Bit rate : 2 b/s
Frame rate : 0.004 FPS
Count of elements : 20
Stream size : 1.57 KiB (0%)
Title : Forced
Language : Russian
Default : Yes
Forced : No

Text #2
ID : 6
Format : UTF-8
Codec ID : S_TEXT/UTF8
Codec ID/Info : UTF-8 Plain Text
Duration : 1 h 36 min
Bit rate : 141 b/s
Frame rate : 0.360 FPS
Count of elements : 2087
Stream size : 100 KiB (0%)
Title : Full
Language : Russian
Default : No
Forced : No

Text #3
ID : 7
Format : UTF-8
Codec ID : S_TEXT/UTF8
Codec ID/Info : UTF-8 Plain Text
Duration : 1 h 40 min
Bit rate : 70 b/s
Frame rate : 0.314 FPS
Count of elements : 1898
Stream size : 51.8 KiB (0%)
Title : Full
Language : English
Default : No
Forced : No

Text #4
ID : 8
Format : UTF-8
Codec ID : S_TEXT/UTF8
Codec ID/Info : UTF-8 Plain Text
Duration : 1 h 42 min
Bit rate : 116 b/s
Frame rate : 0.379 FPS
Count of elements : 2327
Stream size : 87.4 KiB (0%)
Title : SDH
Language : French
Default : No
Forced : No

Menu
00:00:00.000 : en:Глава 01
00:08:22.332 : en:Глава 02
00:18:20.833 : en:Глава 03
00:37:51.166 : en:Глава 04
00:50:57.500 : en:Глава 05
01:02:43.375 : en:Глава 06
01:20:30.457 : en:Глава 07
01:36:22.957 : en:Глава 08

Другие фильмы
У данной публикации пока нет комментариев.
Будь первым, оставь своё мнение в комментариях!
Информация
Посетители, находящиеся в группе Гости, не могут оставлять комментарии к данной публикации.
Самый популярный релиз недели
Донаты
Мы в соц. сетях / RSS

Лучшие релизы месяца
Лучшие SD недели
Лучшие 720p недели
Лучшие 1080p недели
Лучшие 4K недели
Вы недавно смотрели
Реклама
Последние комментарии
...

rmzshka

15 мая 2024 13:43

...

Andrey_Vladimirovich

13 мая 2024 18:12

...

Robot

13 мая 2024 16:53

...

rmzshka

13 мая 2024 16:21

...

supermehanik

13 мая 2024 02:03

Реклама