+9

Флэш / The Flash (2023) BDRip 1080p от селезень | D, P

Информация о фильме
Название: Флэш
Оригинальное название: The Flash
Год выхода: 2023
Жанр: фантастика, фэнтези, боевик, приключения
Режиссер: Андрес Мускетти
В ролях: Эзра Миллер, Майкл Китон, Саша Калле, Майкл Шеннон, Рон Ливингстон, Марибель Верду, Кирси Клемонс, Джереми Айронс, Антье Трауэ, Сирша-Моника Джексон

О фильме: Барри Аллен использует свою суперскорость, чтобы изменить прошлое, но его попытка спасти свою семью создает мир без супергероев.

Страна: США, Канада, Австралия, Новая Зеландия
Студия: DC Comics, DC Entertainment, Warner Bros.
Продолжительность: 02:24:06
Перевод(ы):
#1: Дублированный | Bravo Records Georgia / Movie Dubbing
#2: Профессиональный многоголосый | HDRezka Studio
#3: Профессиональный многоголосый | TVShows


Качество: BDRip 1080p
Видео: MPEG-4 AVC, 1920x1012, 13.0 Mbit/s, 23.976 fps
Аудио #01: 48 kHz, AC3, 5.1, 384 Kbps | Дублированный | Bravo Records Georgia / Movie Dubbing | RUS |Флэш / The Flash (2023) BDRip 1080p от селезень | D, P
Аудио #02: 48 kHz, E-AC3, 5.1, 384 Kbps | Дублированный | Bravo Records Georgia / Movie Dubbing | RUS |
Аудио #03: 48 kHz, AC3, 5.1, 448 Kbps | Профессиональный многоголосый | HDRezka Studio | RUS |
Аудио #04: 48 kHz, AC3, 5.1, 384 Kbps | Профессиональный многоголосый | TVShows | RUS |
Аудио #05: 48 kHz, AC3, 5.1, 448 Kbps | Оригинал | ENG |
Субтитры: Русские (2 x Forced, full), английские

Флэш / The Flash (2023) BDRip 1080p от селезень | D, P

Авторизуйтесь для получения доступа к скачиванию

Нет аккаунта? Регистрация открыта и займёт меньше минуты

Вход Регистрация

General
Unique ID : 204253723317712265358575993194524532589 (0x99A9D6112385DD214DF11E5992255F6D)
Complete name : G:\VideoG\The.Flash.2023.D.MVO.BDRip.1080p.seleZen.mkv
Format : Matroska
Format version : Version 4
File size : 15.1 GiB
Duration : 2 h 24 min
Overall bit rate : 15.0 Mb/s
Frame rate : 23.976 FPS
Movie name : The Flash 2023 from seleZen
Encoded date : 2023-08-22 09:52:33 UTC
Writing application : mkvmerge v63.0.0 ('Everything') 64-bit
Writing library : libebml v1.4.2 + libmatroska v1.6.4

Video
ID : 1
Format : AVC
Format/Info : Advanced Video Codec
Format profile : [email protected]
Format settings : CABAC / 4 Ref Frames
Format settings, CABAC : Yes
Format settings, Reference : 4 frames
Codec ID : V_MPEG4/ISO/AVC
Duration : 2 h 24 min
Bit rate : 13.0 Mb/s
Width : 1 920 pixels
Height : 1 012 pixels
Display aspect ratio : 1.897
Frame rate mode : Constant
Frame rate : 23.976 (24000/1001) FPS
Color space : YUV
Chroma subsampling : 4:2:0
Bit depth : 8 bits
Scan type : Progressive
Bits/(Pixel*Frame) : 0.278
Stream size : 13.0 GiB (86%)
Writing library : x264 core 164 r3107+58M ae98796 t_mod_New [(8 & 10)-seleZen X86_64]
Encoding settings : cabac=1 / ref=4 / deblock=1:-2:-2 / analyse=0x3:0x133 / me=umh / subme=10 / psy=1 / fade_compensate=0.00 / psy_rd=1.01:0.02 / mixed_ref=1 / me_range=48 / chroma_me=1 / trellis=2 / 8x8dct=1 / cqm=0 / deadzone=21,11 / fast_pskip=0 / chroma_qp_offset=-3 / threads=32 / lookahead_threads=5 / sliced_threads=0 / nr=0 / decimate=0 / interlaced=0 / bluray_compat=0 / constrained_intra=0 / fgo=0 / bframes=9 / b_pyramid=2 / b_adapt=2 / b_bias=0 / direct=1 / weightb=1 / open_gop=0 / weightp=2 / keyint=240 / keyint_min=23 / scenecut=40 / intra_refresh=0 / rc_lookahead=60 / rc=crf / mbtree=0 / crf=18.6000 / qcomp=0.60 / qpmin=0:0:0 / qpmax=51:51:51 / qpstep=4 / vbv_maxrate=50000 / vbv_bufsize=62500 / crf_max=0.0 / nal_hrd=none / filler=0 / ip_ratio=1.40 / pb_ratio=1.30 / aq=3:0.80 / aq-sensitivity=10.00 / aq-factor=1.00:1.00:1.00:1.00 / aq2=0 / aq3=0
Language : English
Default : Yes
Forced : No

Audio #1
ID : 2
Format : AC-3
Format/Info : Audio Coding 3
Commercial name : Dolby Digital
Codec ID : A_AC3
Duration : 2 h 24 min
Bit rate mode : Constant
Bit rate : 384 kb/s
Channel(s) : 6 channels
Channel layout : L R C LFE Ls Rs
Sampling rate : 48.0 kHz
Frame rate : 31.250 FPS (1536 SPF)
Compression mode : Lossy
Stream size : 396 MiB (3%)
Title : Dub [Bravo Records Georgia / Movie Dubbing]
Language : Russian
Service kind : Complete Main
Default : Yes
Forced : Yes

Audio #2
ID : 3
Format : E-AC-3
Format/Info : Enhanced AC-3
Commercial name : Dolby Digital Plus
Codec ID : A_EAC3
Duration : 2 h 24 min
Bit rate mode : Constant
Bit rate : 384 kb/s
Channel(s) : 6 channels
Channel layout : L R C LFE Ls Rs
Sampling rate : 48.0 kHz
Frame rate : 31.250 FPS (1536 SPF)
Compression mode : Lossy
Stream size : 396 MiB (3%)
Title : Dub [Bravo Records Georgia / Movie Dubbing]
Language : Russian
Service kind : Complete Main
Default : No
Forced : No

Audio #3
ID : 4
Format : AC-3
Format/Info : Audio Coding 3
Commercial name : Dolby Digital
Codec ID : A_AC3
Duration : 2 h 24 min
Bit rate mode : Constant
Bit rate : 448 kb/s
Channel(s) : 6 channels
Channel layout : L R C LFE Ls Rs
Sampling rate : 48.0 kHz
Frame rate : 31.250 FPS (1536 SPF)
Compression mode : Lossy
Stream size : 462 MiB (3%)
Title : MVO [HDRezka Studio]
Language : Russian
Service kind : Complete Main
Default : No
Forced : No

Audio #4
ID : 5
Format : AC-3
Format/Info : Audio Coding 3
Commercial name : Dolby Digital
Codec ID : A_AC3
Duration : 2 h 24 min
Bit rate mode : Constant
Bit rate : 384 kb/s
Channel(s) : 6 channels
Channel layout : L R C LFE Ls Rs
Sampling rate : 48.0 kHz
Frame rate : 31.250 FPS (1536 SPF)
Compression mode : Lossy
Stream size : 396 MiB (3%)
Title : MVO [TVShows]
Language : Russian
Service kind : Complete Main
Default : No
Forced : No

Audio #5
ID : 6
Format : AC-3
Format/Info : Audio Coding 3
Commercial name : Dolby Digital
Codec ID : A_AC3
Duration : 2 h 24 min
Bit rate mode : Constant
Bit rate : 448 kb/s
Channel(s) : 6 channels
Channel layout : L R C LFE Ls Rs
Sampling rate : 48.0 kHz
Frame rate : 31.250 FPS (1536 SPF)
Compression mode : Lossy
Stream size : 462 MiB (3%)
Title : Original
Language : English
Service kind : Complete Main
Default : No
Forced : No

Text #1
ID : 7
Format : UTF-8
Codec ID : S_TEXT/UTF8
Codec ID/Info : UTF-8 Plain Text
Duration : 2 h 14 min
Bit rate : 0 b/s
Frame rate : 0.003 FPS
Count of elements : 24
Stream size : 818 Bytes (0%)
Title : Forced
Language : Russian
Default : Yes
Forced : Yes

Text #2
ID : 8
Format : UTF-8
Codec ID : S_TEXT/UTF8
Codec ID/Info : UTF-8 Plain Text
Duration : 2 h 23 min
Bit rate : 72 b/s
Frame rate : 0.228 FPS
Count of elements : 1966
Stream size : 76.2 KiB (0%)
Title : Full
Language : Russian
Default : No
Forced : No

Text #3
ID : 9
Format : UTF-8
Codec ID : S_TEXT/UTF8
Codec ID/Info : UTF-8 Plain Text
Duration : 2 h 23 min
Bit rate : 1 b/s
Frame rate : 0.005 FPS
Count of elements : 39
Stream size : 1.79 KiB (0%)
Title : Forced [HDRezka Studio]
Language : Russian
Default : No
Forced : No

Text #4
ID : 10
Format : UTF-8
Codec ID : S_TEXT/UTF8
Codec ID/Info : UTF-8 Plain Text
Duration : 2 h 23 min
Bit rate : 51 b/s
Frame rate : 0.227 FPS
Count of elements : 1950
Stream size : 54.3 KiB (0%)
Title : Full
Language : English
Default : No
Forced : No

Text #5
ID : 11
Format : UTF-8
Codec ID : S_TEXT/UTF8
Codec ID/Info : UTF-8 Plain Text
Duration : 2 h 23 min
Bit rate : 63 b/s
Frame rate : 0.287 FPS
Count of elements : 2481
Stream size : 66.9 KiB (0%)
Title : SDH
Language : English
Default : No
Forced : No

Menu
00:00:00.000 : en:Chapter 01
00:07:01.212 : en:Chapter 02
00:15:41.399 : en:Chapter 03
00:22:59.336 : en:Chapter 04
00:30:49.139 : en:Chapter 05
00:36:46.704 : en:Chapter 06
00:45:41.530 : en:Chapter 07
00:54:54.666 : en:Chapter 08
01:02:07.974 : en:Chapter 09
01:11:10.016 : en:Chapter 10
01:20:55.809 : en:Chapter 11
01:29:40.041 : en:Chapter 12
01:37:53.451 : en:Chapter 13
01:47:28.734 : en:Chapter 14
01:56:48.793 : en:Chapter 15
02:06:24.911 : en:Chapter 16
02:13:57.821 : en:Chapter 17
02:22:36.298 : en:Chapter 18

Другие фильмы
У данной публикации пока нет комментариев.
Будь первым, оставь своё мнение в комментариях!
Информация
Посетители, находящиеся в группе Гости, не могут оставлять комментарии к данной публикации.
Самый популярный релиз недели
Донаты
Мы в соц. сетях / RSS

Лучшие релизы месяца
Лучшие SD недели
Лучшие 720p недели
Лучшие 1080p недели
Лучшие 4K недели
Вы недавно смотрели
Реклама
Последние комментарии
...

rmzshka

12 июля 2024 11:30

...

Rustik99

12 июля 2024 10:11

...

-=DoMiNo=-

11 июля 2024 23:42

...

rmzshka

11 июля 2024 11:28

...

-=DoMiNo=-

10 июля 2024 15:08

Реклама