+12

Подземелья и драконы: Честь среди воров / Dungeons & Dragons: Honor Among Thieves (2023) BDRip-AVC от DoMiNo & селезень | D

Информация о фильме
Название: Подземелья и драконы: Честь среди воров
Оригинальное название: Dungeons & Dragons: Honor Among Thieves
Год выхода: 2023
Жанр: Фэнтези, боевик, комедия
Режиссер: Джон Фрэнсис Дейли, Джонатан М. Голдштейн
В ролях: Крис Пайн, Мишель Родригес, Реге-Жан Пейдж, Джастис Смит, София Лиллис, Хью Грант, Хлоя Коулмэн, Дэйзи Хэд, Кайл Хиксон, Спенсер Уайлдинг

О фильме:
Эдгин Дарвис вместе с верной воительницей Хольгой объединяются с рассеянным магом Саймоном, ловкой друидкой Дорик и чопорным паладином Зенком, чтобы вернуть утерянную реликвию, наделенную огромной силой. Однако всё быстро идет наперекосяк, когда на их пути встает злодей Фордж.

Страна: США, Канада
Студия: Paramount Pictures, Entertainment One, Allspark Pictures
Продолжительность: 02:14:08
Перевод 1: Дублированный (неофициальный) | Red Head Sound
Перевод 2: Дублированный | SDI Media / IYUNO SDI Group
Субтитры: Русские (Forced, Full x2), английские

Файл
Формат: Matroska
Качество: BDRip-AVC
Видео: 1024x428 at 23.976 fps, [email protected], ~2321 kbps
Аудио: AC3, 6 ch, ~448 kbps - | Русский | Подземелья и драконы: Честь среди воров / Dungeons & Dragons: Honor Among Thieves (2023) BDRip-AVC от DoMiNo & селезень | D | Red Head Sound
Аудио: AC3, 6 ch, ~384 kbps - | Русский | | SDI Media / IYUNO SDI Group
Формат субтитров: softsub (SRT)

Подземелья и драконы: Честь среди воров / Dungeons & Dragons: Honor Among Thieves (2023) BDRip-AVC от DoMiNo & селезень | D

Авторизуйтесь для получения доступа к скачиванию

Нет аккаунта? Регистрация открыта и займёт меньше минуты

Вход Регистрация

General
Unique ID : 289625024535628491079101075894370633502 (0xD9E3C0307A32D84F3AFE9C97FC0D071E)
Complete name : R:Dungeons.and.Dragons.Honor.Among.Thieves.2023.2xDUB.BDRip.x264.seleZen.mkv
Format : Matroska
Format version : Version 4
File size : 2.96 GiB
Duration : 2 h 14 min
Overall bit rate : 3 156 kb/s
Frame rate : 23.976 FPS
Movie name : Dungeons.and.Dragons.Honor.Among.Thieves.2023.2xDUB.BDRip.x264.seleZen
Encoded date : 2024-02-04 10:39:07 UTC
Writing application : mkvmerge v82.0 ('I'm The President') 64-bit
Writing library : libebml v1.4.5 + libmatroska v1.7.1
Cover : Yes
Attachments : cover.jpg / small_cover.jpg

Video
ID : 1
Format : AVC
Format/Info : Advanced Video Codec
Format profile : [email protected]
Format settings : CABAC / 16 Ref Frames
Format settings, CABAC : Yes
Format settings, Reference : 16 frames
Codec ID : V_MPEG4/ISO/AVC
Duration : 2 h 14 min
Bit rate : 2 321 kb/s
Width : 1 024 pixels
Height : 428 pixels
Display aspect ratio : 2.40:1
Frame rate mode : Constant
Frame rate : 23.976 (24000/1001) FPS
Color space : YUV
Chroma subsampling : 4:2:0
Bit depth : 8 bits
Scan type : Progressive
Bits/(Pixel*Frame) : 0.221
Stream size : 2.17 GiB (74%)
Title : -=DoMiNo=-
Writing library : x264 core 164 r3107+58M ae98796 t_mod_New | by -=DoMiNo=- | X86_64]
Encoding settings : cabac=1 / ref=16 / deblock=1:-2:-2 / analyse=0x3:0x133 / me=umh / subme=11 / psy=1 / fade_compensate=0.00 / psy_rd=1.03:0.05 / mixed_ref=1 / me_range=48 / chroma_me=1 / trellis=2 / 8x8dct=1 / cqm=0 / deadzone=21,11 / fast_pskip=0 / chroma_qp_offset=-3 / threads=18 / lookahead_threads=3 / sliced_threads=0 / nr=0 / decimate=1 / interlaced=0 / bluray_compat=0 / constrained_intra=0 / fgo=0 / bframes=12 / b_pyramid=2 / b_adapt=2 / b_bias=0 / direct=3 / weightb=1 / open_gop=0 / weightp=2 / keyint=240 / keyint_min=23 / scenecut=40 / intra_refresh=0 / rc_lookahead=60 / rc=crf / mbtree=0 / crf=17.5000 / qcomp=0.60 / qpmin=0:0:0 / qpmax=69:69:69 / qpstep=4 / vbv_maxrate=50000 / vbv_bufsize=62500 / crf_max=0.0 / nal_hrd=none / filler=0 / ip_ratio=1.35 / pb_ratio=1.25 / aq=3:0.90 / aq-sensitivity=10.00 / aq-factor=1.00:1.00:1.00:1.00 / aq2=0 / aq3=0
Language : English
Default : Yes
Forced : No

Audio #1
ID : 2
Format : AC-3
Format/Info : Audio Coding 3
Commercial name : Dolby Digital
Codec ID : A_AC3
Duration : 2 h 14 min
Bit rate mode : Constant
Bit rate : 448 kb/s
Channel(s) : 6 channels
Channel layout : L R C LFE Ls Rs
Sampling rate : 48.0 kHz
Frame rate : 31.250 FPS (1536 SPF)
Compression mode : Lossy
Stream size : 430 MiB (14%)
Title : Dub [Red Head Sound]
Language : Russian
Service kind : Complete Main
Default : Yes
Forced : No

Audio #2
ID : 3
Format : AC-3
Format/Info : Audio Coding 3
Commercial name : Dolby Digital
Codec ID : A_AC3
Duration : 2 h 14 min
Bit rate mode : Constant
Bit rate : 384 kb/s
Channel(s) : 6 channels
Channel layout : L R C LFE Ls Rs
Sampling rate : 48.0 kHz
Frame rate : 31.250 FPS (1536 SPF)
Compression mode : Lossy
Stream size : 368 MiB (12%)
Title : Dub [SDI Media / IYUNO SDI Group]
Language : Russian
Service kind : Complete Main
Default : No
Forced : No

Text #1
ID : 4
Format : UTF-8
Codec ID : S_TEXT/UTF8
Codec ID/Info : UTF-8 Plain Text
Duration : 1 h 59 min
Bit rate : 1 b/s
Frame rate : 0.002 FPS
Count of elements : 15
Stream size : 989 Bytes (0%)
Title : Forced
Language : Russian
Default : No
Forced : No

Text #2
ID : 5
Format : UTF-8
Codec ID : S_TEXT/UTF8
Codec ID/Info : UTF-8 Plain Text
Duration : 2 h 12 min
Bit rate : 81 b/s
Frame rate : 0.198 FPS
Count of elements : 1580
Stream size : 79.8 KiB (0%)
Title : Full
Language : Russian
Default : No
Forced : No

Text #3
ID : 6
Format : UTF-8
Codec ID : S_TEXT/UTF8
Codec ID/Info : UTF-8 Plain Text
Duration : 2 h 6 min
Bit rate : 94 b/s
Frame rate : 0.216 FPS
Count of elements : 1641
Stream size : 87.8 KiB (0%)
Title : Full (Director's Card и RebelProject)
Language : Russian
Default : No
Forced : No

Text #4
ID : 7
Format : UTF-8
Codec ID : S_TEXT/UTF8
Codec ID/Info : UTF-8 Plain Text
Duration : 35 min 25 s
Bit rate : 1 b/s
Frame rate : 0.006 FPS
Count of elements : 13
Stream size : 483 Bytes (0%)
Title : Forced
Language : English
Default : No
Forced : No

Text #5
ID : 8
Format : UTF-8
Codec ID : S_TEXT/UTF8
Codec ID/Info : UTF-8 Plain Text
Duration : 2 h 6 min
Bit rate : 57 b/s
Frame rate : 0.209 FPS
Count of elements : 1589
Stream size : 53.9 KiB (0%)
Title : Full
Language : English
Default : No
Forced : No

Text #6
ID : 9
Format : UTF-8
Codec ID : S_TEXT/UTF8
Codec ID/Info : UTF-8 Plain Text
Duration : 2 h 7 min
Bit rate : 65 b/s
Frame rate : 0.251 FPS
Count of elements : 1928
Stream size : 61.1 KiB (0%)
Title : SDH
Language : English
Default : No
Forced : No

Menu
00:00:00.000 : en:Chapter 01
00:07:55.475 : en:Chapter 02
00:14:48.387 : en:Chapter 03
00:26:48.565 : en:Chapter 04
00:33:54.365 : en:Chapter 05
00:42:14.365 : en:Chapter 06
00:49:19.665 : en:Chapter 07
00:57:33.408 : en:Chapter 08
01:05:10.197 : en:Chapter 09
01:17:03.243 : en:Chapter 10
01:26:41.070 : en:Chapter 11
01:32:11.108 : en:Chapter 12
01:40:15.676 : en:Chapter 13
01:47:44.541 : en:Chapter 14
01:53:30.136 : en:Chapter 15
02:05:37.071 : en:Chapter 16

Другие фильмы
У данной публикации пока нет комментариев.
Будь первым, оставь своё мнение в комментариях!
Информация
Посетители, находящиеся в группе Гости, не могут оставлять комментарии к данной публикации.
Самый популярный релиз недели
Донаты
Мы в соц. сетях / RSS

Лучшие релизы месяца
Лучшие SD недели
Лучшие 720p недели
Лучшие 1080p недели
Лучшие 4K недели
Вы недавно смотрели
Реклама
Последние комментарии
...

rmzshka

12 июля 2024 11:30

...

Rustik99

12 июля 2024 10:11

...

-=DoMiNo=-

11 июля 2024 23:42

...

rmzshka

11 июля 2024 11:28

...

-=DoMiNo=-

10 июля 2024 15:08

Реклама