+2

Профессор и призрачный убийца / The Ritual Killer (2023) BDRemux 1080p от селезень | D

Информация о фильме
Название: Профессор и призрачный убийца
Оригинальное название: The Ritual Killer
Год выхода: 2023
Жанр: триллер, криминал, детектив
Режиссер: Джордж Галло
В ролях: Коул Хаузер, Морган Фриман, Мюриэль Хилейр, Вернон Дэвис, Брайан Курландер, Петер Стормаре, Люк Стратт-МакКлюр, Маюми Роллер, Талия Ассераф, Коуди Леммон

О фильме: Полиции разных стран сталкиваются с серией загадочных и жестоких убийств, похожих на ритуальные. Расследования неизменно заходят в тупик, поскольку убийца исчезает с места преступления, словно призрак. Взявшись за дело, детектив Бойд знакомится с университетским профессором Мэклзом, изучающим древние магические культы, в которых для получения поддержки тёмных сил практикуются человеческие жертвоприношения. Теперь профессору предстоит окунуться в глубины психологии убийц и раскрыть тайну, стоящую за жестокими преступлениями.

Страна: США
Студия: Black Diamond Films, Iervolino & Lady Bacardi Entertainment, Iervolino Entertainment, March On Productions, Wonderfilm Media
Продолжительность: 01:31:37
Перевод: Дублированный | Paragraph Media

Качество: BDRemux 1080p
Видео: MPEG-4 AVC, 1920x1080, 26.0 Mbit/s, 23.976 fps
Аудио #01: 48 kHz, AC3, 5.1, 384 Kbps | Дублированный | Paragraph Media | RUS |Профессор и призрачный убийца / The Ritual Killer (2023) BDRemux 1080p от селезень | D
Аудио #02: 48 kHz, DTS-HD MA, 5.1, 3877 Kbps | Оригинал | ENG |
Субтитры: Русские (Forced, full), английские

Профессор и призрачный убийца / The Ritual Killer (2023) BDRemux 1080p от селезень | D

Авторизуйтесь для получения доступа к скачиванию

Нет аккаунта? Регистрация открыта и займёт меньше минуты

Вход Регистрация

General
Unique ID : 132486622003843964045198171560185090877 (0x63ABFEC9049D15C5D24BC2460B7ED33D)
Complete name : E:\VideoE\The.Ritual.Killer.2023.BDREMUX.1080p.seleZen.mkv
Format : Matroska
Format version : Version 4
File size : 19.4 GiB
Duration : 1 h 31 min
Overall bit rate mode : Variable
Overall bit rate : 30.3 Mb/s
Frame rate : 23.976 FPS
Movie name : The Ritual Killer 2023 from seleZen
Encoded date : 2023-05-26 22:18:44 UTC
Writing application : mkvmerge v59.0.0 ('Shining Star') 64-bit
Writing library : libebml v1.4.2 + libmatroska v1.6.4

Video
ID : 1
Format : AVC
Format/Info : Advanced Video Codec
Format profile : [email protected]
Format settings : CABAC / 4 Ref Frames
Format settings, CABAC : Yes
Format settings, Reference : 4 frames
Format settings, GOP : M=3, N=12
Codec ID : V_MPEG4/ISO/AVC
Duration : 1 h 31 min
Bit rate mode : Variable
Bit rate : 26.0 Mb/s
Maximum bit rate : 32.6 Mb/s
Width : 1 920 pixels
Height : 1 080 pixels
Display aspect ratio : 16:9
Frame rate mode : Constant
Frame rate : 23.976 (24000/1001) FPS
Standard : NTSC
Color space : YUV
Chroma subsampling : 4:2:0
Bit depth : 8 bits
Scan type : Progressive
Bits/(Pixel*Frame) : 0.523
Stream size : 16.6 GiB (86%)
Language : zxx
Default : Yes
Forced : No
Color range : Limited
Color primaries : BT.709
Transfer characteristics : BT.709
Matrix coefficients : BT.709

Audio #1
ID : 2
Format : AC-3
Format/Info : Audio Coding 3
Commercial name : Dolby Digital
Codec ID : A_AC3
Duration : 1 h 31 min
Bit rate mode : Constant
Bit rate : 384 kb/s
Channel(s) : 6 channels
Channel layout : L R C LFE Ls Rs
Sampling rate : 48.0 kHz
Frame rate : 31.250 FPS (1536 SPF)
Compression mode : Lossy
Stream size : 252 MiB (1%)
Title : Dub
Language : Russian
Service kind : Complete Main
Default : Yes
Forced : Yes

Audio #2
ID : 3
Format : DTS XLL
Format/Info : Digital Theater Systems
Commercial name : DTS-HD Master Audio
Codec ID : A_DTS
Duration : 1 h 31 min
Bit rate mode : Variable
Bit rate : 3 877 kb/s
Channel(s) : 6 channels
Channel layout : C L R Ls Rs LFE
Sampling rate : 48.0 kHz
Frame rate : 93.750 FPS (512 SPF)
Bit depth : 24 bits
Compression mode : Lossless
Stream size : 2.48 GiB (13%)
Title : Original
Language : English
Default : Yes
Forced : No

Text #1
ID : 4
Format : UTF-8
Codec ID : S_TEXT/UTF8
Codec ID/Info : UTF-8 Plain Text
Duration : 1 h 23 min
Bit rate : 0 b/s
Frame rate : 0.003 FPS
Count of elements : 13
Stream size : 465 Bytes (0%)
Title : Forced
Language : Russian
Default : Yes
Forced : Yes

Text #2
ID : 5
Format : UTF-8
Codec ID : S_TEXT/UTF8
Codec ID/Info : UTF-8 Plain Text
Duration : 1 h 27 min
Bit rate : 73 b/s
Frame rate : 0.171 FPS
Count of elements : 898
Stream size : 47.2 KiB (0%)
Title : Full
Language : Russian
Default : No
Forced : No

Text #3
ID : 6
Format : UTF-8
Codec ID : S_TEXT/UTF8
Codec ID/Info : UTF-8 Plain Text
Duration : 1 h 20 min
Bit rate : 46 b/s
Frame rate : 0.210 FPS
Count of elements : 1012
Stream size : 27.2 KiB (0%)
Title : Full
Language : English
Default : No
Forced : No

Text #4
ID : 7
Format : UTF-8
Codec ID : S_TEXT/UTF8
Codec ID/Info : UTF-8 Plain Text
Duration : 1 h 24 min
Bit rate : 48 b/s
Frame rate : 0.227 FPS
Count of elements : 1151
Stream size : 29.8 KiB (0%)
Title : SDH
Language : English
Default : No
Forced : No

Menu
00:00:00.000 : Chapter 01
00:07:25.111 : Chapter 02
00:13:14.961 : Chapter 03
00:20:11.043 : Chapter 04
00:28:30.626 : Chapter 05
00:36:35.527 : Chapter 06
00:39:22.819 : Chapter 07
00:49:51.947 : Chapter 08
00:59:33.236 : Chapter 09
01:08:55.340 : Chapter 10
01:17:58.048 : Chapter 11
01:26:06.495 : Chapter 12

Другие фильмы
У данной публикации пока нет комментариев.
Будь первым, оставь своё мнение в комментариях!
Информация
Посетители, находящиеся в группе Гости, не могут оставлять комментарии к данной публикации.
Самый популярный релиз недели
Донаты
Мы в соц. сетях / RSS

Лучшие релизы месяца
Лучшие SD недели
Лучшие 720p недели
Лучшие 1080p недели
Лучшие 4K недели
Вы недавно смотрели
Реклама
Последние комментарии
...

-=DoMiNo=-

9 апреля 2024 17:43

...

supermehanik

9 апреля 2024 16:22

...

selezinka

5 апреля 2024 16:20

...

Kirk1991

30 марта 2024 15:04

...

Robot

22 марта 2024 09:33

Реклама