+11

Люби снова / Love Again (2023) WEB-DLRip-AVC от DoMiNo & селезень | D, P

Информация о фильме
Название: Люби снова
Оригинальное название: Love Again
Год выпуска: 2023
Жанр: Драма, мелодрама, комедия
Режиссер: Джеймс С. Страуз / James C. Strouse
В ролях: Приянка Чопра Джонас, Сэм Хьюэн, Селин Дион, София Барклай, Расселл Тови, Лидия Уэст, Стив Орам, Омид Джалили, Ник Джонас, Селия Имри

О фильме:
Пытаясь справиться со смертью любимого человека, Мира Рэй отправляет серию романтических сообщений на его старый номер, не зная, что он теперь принадлежит Робу Бернсу. Журналиста Роба трогает искренность сообщений незнакомой девушки. Когда ему поручают написать статью о суперзвезде Селин Дион, он заручается поддержкой певицы, чтобы придумать, как лично встретиться с Мирой и завоевать её сердце.

Выпущено: США, Screen Gems, 2.0 Entertainment, Thunder Road Pictures
Продолжительность: 01:44:21
Перевод 1: Дублированный | Bravo Records Georgia / Movie Dubbing
Перевод 2: Профессиональный (многоголосый, закадровый) | Jaskier
Субтитры: Русские (Forced, full), украинские (Forced, full), английские

Файл
Формат: Matroska
Качество: WEB-DLRip-AVC
Видео: 1024x554 at 23.976 fps, [email protected], ~1965 kbps
Аудио 1: AC3, 6 ch, ~384 kbps - | Русский | Люби снова / Love Again (2023) WEB-DLRip-AVC от DoMiNo & селезень | D, P | Bravo Records Georgia / Movie Dubbing
Аудио 2: AC3, 6 ch, ~384 kbps - | Русский | | Jaskier
Формат субтитров: softsub (SRT)

Люби снова / Love Again (2023) WEB-DLRip-AVC от DoMiNo & селезень | D, P

Авторизуйтесь для получения доступа к скачиванию

Нет аккаунта? Регистрация открыта и займёт меньше минуты

Вход Регистрация

General
Unique ID : 62098267430880638129587726822735541368 (0x2EB7B0F754B5930BBC6484427A42F478)
Complete name : H:Love.Again.2023.DUB.MVO.WEB-DLRip.x264.seleZen.mkv
Format : Matroska
Format version : Version 4
File size : 1.99 GiB
Duration : 1 h 44 min
Overall bit rate : 2 736 kb/s
Frame rate : 23.976 FPS
Movie name : Love.Again.2023.DUB.MVO.WEB-DLRip.x264.seleZen
Encoded date : 2023-07-06 05:40:42 UTC
Writing application : mkvmerge v78.0 ('Running') 64-bit
Writing library : libebml v1.4.4 + libmatroska v1.7.1
Cover : Yes
Attachments : cover.jpg / small_cover.jpg

Video
ID : 1
Format : AVC
Format/Info : Advanced Video Codec
Format profile : [email protected]
Format settings : CABAC / 10 Ref Frames
Format settings, CABAC : Yes
Format settings, Reference : 10 frames
Codec ID : V_MPEG4/ISO/AVC
Duration : 1 h 44 min
Bit rate : 1 965 kb/s
Width : 1 024 pixels
Height : 554 pixels
Display aspect ratio : 1.85:1
Frame rate mode : Constant
Frame rate : 23.976 (24000/1001) FPS
Color space : YUV
Chroma subsampling : 4:2:0
Bit depth : 8 bits
Scan type : Progressive
Bits/(Pixel*Frame) : 0.144
Stream size : 1.43 GiB (72%)
Title : -=DoMiNo=-
Writing library : x264 core 164 r3107+58M ae98796 t_mod_New | by -=DoMiNo=- | X86_64]
Encoding settings : cabac=1 / ref=10 / deblock=1:-2:-1 / analyse=0x3:0x133 / me=umh / subme=10 / psy=1 / fade_compensate=0.00 / psy_rd=1.03:0.15 / mixed_ref=1 / me_range=32 / chroma_me=1 / trellis=2 / 8x8dct=1 / cqm=0 / deadzone=21,11 / fast_pskip=0 / chroma_qp_offset=-3 / threads=17 / lookahead_threads=4 / sliced_threads=0 / nr=0 / decimate=1 / interlaced=0 / bluray_compat=0 / constrained_intra=0 / fgo=0 / bframes=12 / b_pyramid=2 / b_adapt=2 / b_bias=0 / direct=3 / weightb=1 / open_gop=0 / weightp=2 / keyint=240 / keyint_min=23 / scenecut=40 / intra_refresh=0 / rc_lookahead=60 / rc=crf / mbtree=0 / crf=19.1000 / qcomp=0.60 / qpmin=0:0:0 / qpmax=69:69:69 / qpstep=4 / vbv_maxrate=50000 / vbv_bufsize=62500 / crf_max=0.0 / nal_hrd=none / filler=0 / ip_ratio=1.35 / pb_ratio=1.25 / aq=3:0.90 / aq-sensitivity=10.00 / aq-factor=1.00:1.00:1.00:1.00 / aq2=0 / aq3=0
Language : English
Default : Yes
Forced : No
Color range : Limited
Color primaries : BT.709
Transfer characteristics : BT.709
Matrix coefficients : BT.709

Audio #1
ID : 2
Format : AC-3
Format/Info : Audio Coding 3
Commercial name : Dolby Digital
Codec ID : A_AC3
Duration : 1 h 44 min
Bit rate mode : Constant
Bit rate : 384 kb/s
Channel(s) : 6 channels
Channel layout : L R C LFE Ls Rs
Sampling rate : 48.0 kHz
Frame rate : 31.250 FPS (1536 SPF)
Compression mode : Lossy
Stream size : 287 MiB (14%)
Title : Dub
Language : Russian
Service kind : Complete Main
Default : Yes
Forced : Yes

Audio #2
ID : 3
Format : AC-3
Format/Info : Audio Coding 3
Commercial name : Dolby Digital
Codec ID : A_AC3
Duration : 1 h 44 min
Bit rate mode : Constant
Bit rate : 384 kb/s
Channel(s) : 6 channels
Channel layout : L R C LFE Ls Rs
Sampling rate : 48.0 kHz
Frame rate : 31.250 FPS (1536 SPF)
Compression mode : Lossy
Stream size : 287 MiB (14%)
Title : Jaskier
Language : Russian
Service kind : Complete Main
Default : No
Forced : No

Text #1
ID : 4
Format : UTF-8
Codec ID : S_TEXT/UTF8
Codec ID/Info : UTF-8 Plain Text
Duration : 1 h 39 min
Bit rate : 0 b/s
Frame rate : 0.001 FPS
Count of elements : 7
Stream size : 491 Bytes (0%)
Title : Forced
Language : Russian
Default : Yes
Forced : Yes

Text #2
ID : 5
Format : UTF-8
Codec ID : S_TEXT/UTF8
Codec ID/Info : UTF-8 Plain Text
Duration : 1 h 43 min
Bit rate : 104 b/s
Frame rate : 0.252 FPS
Count of elements : 1566
Stream size : 79.4 KiB (0%)
Title : Full
Language : Russian
Default : No
Forced : No

Text #3
ID : 6
Format : UTF-8
Codec ID : S_TEXT/UTF8
Codec ID/Info : UTF-8 Plain Text
Duration : 1 h 42 min
Bit rate : 6 b/s
Frame rate : 0.015 FPS
Count of elements : 92
Stream size : 4.97 KiB (0%)
Title : Forced
Language : Ukrainian
Default : No
Forced : No

Text #4
ID : 7
Format : UTF-8
Codec ID : S_TEXT/UTF8
Codec ID/Info : UTF-8 Plain Text
Duration : 1 h 42 min
Bit rate : 95 b/s
Frame rate : 0.238 FPS
Count of elements : 1470
Stream size : 72.3 KiB (0%)
Title : Full
Language : Ukrainian
Default : No
Forced : No

Text #5
ID : 8
Format : UTF-8
Codec ID : S_TEXT/UTF8
Codec ID/Info : UTF-8 Plain Text
Duration : 1 h 41 min
Bit rate : 73 b/s
Frame rate : 0.288 FPS
Count of elements : 1756
Stream size : 54.5 KiB (0%)
Language : English
Default : No
Forced : No

Text #6
ID : 9
Format : UTF-8
Codec ID : S_TEXT/UTF8
Codec ID/Info : UTF-8 Plain Text
Duration : 1 h 38 min
Bit rate : 58 b/s
Frame rate : 0.232 FPS
Count of elements : 1374
Stream size : 42.3 KiB (0%)
Title : English [GB]
Language : English (GB)
Default : No
Forced : No

Text #7
ID : 10
Format : UTF-8
Codec ID : S_TEXT/UTF8
Codec ID/Info : UTF-8 Plain Text
Duration : 1 h 38 min
Bit rate : 58 b/s
Frame rate : 0.232 FPS
Count of elements : 1374
Stream size : 42.3 KiB (0%)
Title : English [US]
Language : English (US)
Default : No
Forced : No

Menu
00:00:00.000 : Chapter 01
00:06:14.499 : Chapter 02
00:14:32.664 : Chapter 03
00:20:17.092 : Chapter 04
00:27:15.468 : Chapter 05
00:32:32.744 : Chapter 06
00:38:09.414 : Chapter 07
00:46:44.763 : Chapter 08
00:52:44.122 : Chapter 09
01:01:41.868 : Chapter 10
01:07:08.653 : Chapter 11
01:13:06.094 : Chapter 12
01:19:14.212 : Chapter 13
01:27:04.057 : Chapter 14
01:32:02.313 : Chapter 15
01:37:46.825 : Chapter 16

Другие фильмы
У данной публикации пока нет комментариев.
Будь первым, оставь своё мнение в комментариях!
Информация
Посетители, находящиеся в группе Гости, не могут оставлять комментарии к данной публикации.
Самый популярный релиз недели
Донаты
Мы в соц. сетях / RSS

Лучшие релизы месяца
Лучшие SD недели
Лучшие 720p недели
Лучшие 1080p недели
Лучшие 4K недели
Вы недавно смотрели
Реклама
Последние комментарии
...

korelov

23 февраля 2024 14:35

...

Desol

21 февраля 2024 00:28

...

diabloq

20 февраля 2024 14:17

...

slightlymad

17 февраля 2024 21:01

...

takezi

15 февраля 2024 22:10

Реклама