+2

Заклятье. Первое пробуждение / La Niña de la Comunión / The Communion Girl (2022) BDRip 720p от селезень | D

Информация о фильме
Название: Заклятье. Первое пробуждение
Оригинальное название: La Niña de la Comunión
Год выхода: 2022
Жанр: ужасы
Режиссер: Виктор Гарсия
В ролях: Карла Кампра, Айна Квиньонес, Марк Солер, Карлос Овьедо, Олимпия Рош, Мария Молинс, Ксави Лите, Анна Аларкон, Виктор Соле, Сара Рош

О фильме: Новенькая Сара пытается вписаться в компанию подростков. Однажды вечером она идет с ними в ночной клуб, а по дороге домой друзья встречают маленькую девочку с куклой в руках, одетую в старомодное платье для первого причастия. Сара еще не знает леденящую городскую легенду о девочке-призраке, готовой отомстить любому, кому не посчастливится пересечь ее путь.

Страна: Испания
Студия: Atresmedia Cine, Ikiru Films S.L., Rebelion Terrestre, Terraza Films, La
Продолжительность: 01:38:48
Перевод: Дублированный | Велес

Качество: BDRip 720p
Видео: MPEG-4 AVC, 1280x536, 4249 Кbit/s, 24.000 fps
Аудио #01: 48 kHz, AC3, 5.1, 448 Kbps | Дублированный | Велес | RUS |Заклятье. Первое пробуждение / La Niña de la Comunión / The Communion Girl (2022) BDRip 720p от селезень | D
Аудио #02: 48 kHz, E-AC3, 5.1, 448 Kbps | Дублированный | Велес | RUS |
Аудио #03: 48 kHz, AC3, 5.1, 640 Kbps | Оригинал | SPA |
Субтитры: Русские (Full), испанские

Заклятье. Первое пробуждение / La Niña de la Comunión / The Communion Girl (2022) BDRip 720p от селезень | D

Авторизуйтесь для получения доступа к скачиванию

Нет аккаунта? Регистрация открыта и займёт меньше минуты

Вход Регистрация

General
Unique ID : 147121563514850388633752569287425644738 (0x6EAE951C59851C9BD0FE4B4508A3D8C2)
Complete name : D:\Video\The.Communion.Girl.2022.BDRip.720p.seleZen.mkv
Format : Matroska
Format version : Version 4
File size : 3.99 GiB
Duration : 1 h 38 min
Overall bit rate : 5 788 kb/s
Frame rate : 24.000 FPS
Movie name : The Communion Girl 2022 from seleZen
Encoded date : 2023-05-26 16:39:37 UTC
Writing application : mkvmerge v59.0.0 ('Shining Star') 64-bit
Writing library : libebml v1.4.2 + libmatroska v1.6.4

Video
ID : 1
Format : AVC
Format/Info : Advanced Video Codec
Format profile : [email protected]
Format settings : CABAC / 12 Ref Frames
Format settings, CABAC : Yes
Format settings, Reference : 12 frames
Codec ID : V_MPEG4/ISO/AVC
Duration : 1 h 38 min
Bit rate : 4 249 kb/s
Width : 1 280 pixels
Height : 536 pixels
Display aspect ratio : 2.40:1
Frame rate mode : Constant
Frame rate : 24.000 FPS
Color space : YUV
Chroma subsampling : 4:2:0
Bit depth : 8 bits
Scan type : Progressive
Bits/(Pixel*Frame) : 0.258
Stream size : 2.93 GiB (73%)
Writing library : x264 core 164 r3107+58M ae98796 t_mod_New [(8 & 10)-seleZen X86_64]
Encoding settings : cabac=1 / ref=12 / deblock=1:-2:-2 / analyse=0x3:0x133 / me=umh / subme=10 / psy=1 / fade_compensate=0.00 / psy_rd=1.03:0.01 / mixed_ref=1 / me_range=32 / chroma_me=1 / trellis=2 / 8x8dct=1 / cqm=0 / deadzone=21,11 / fast_pskip=0 / chroma_qp_offset=-3 / threads=17 / lookahead_threads=2 / sliced_threads=0 / nr=0 / decimate=0 / interlaced=0 / bluray_compat=0 / constrained_intra=0 / fgo=0 / bframes=8 / b_pyramid=2 / b_adapt=2 / b_bias=0 / direct=1 / weightb=1 / open_gop=0 / weightp=2 / keyint=240 / keyint_min=24 / scenecut=40 / intra_refresh=0 / rc_lookahead=60 / rc=crf / mbtree=0 / crf=17.0000 / qcomp=0.60 / qpmin=0:0:0 / qpmax=51:51:51 / qpstep=4 / vbv_maxrate=50000 / vbv_bufsize=62500 / crf_max=0.0 / nal_hrd=none / filler=0 / ip_ratio=1.40 / pb_ratio=1.30 / aq=3:0.80 / aq-sensitivity=10.00 / aq-factor=1.00:1.00:1.00:1.00 / aq2=0 / aq3=0
Language : English
Default : Yes
Forced : No

Audio #1
ID : 2
Format : AC-3
Format/Info : Audio Coding 3
Commercial name : Dolby Digital
Codec ID : A_AC3
Duration : 1 h 38 min
Bit rate mode : Constant
Bit rate : 448 kb/s
Channel(s) : 6 channels
Channel layout : L R C LFE Ls Rs
Sampling rate : 48.0 kHz
Frame rate : 31.250 FPS (1536 SPF)
Compression mode : Lossy
Stream size : 317 MiB (8%)
Title : Dub
Language : Russian
Service kind : Complete Main
Default : Yes
Forced : Yes

Audio #2
ID : 3
Format : E-AC-3
Format/Info : Enhanced AC-3
Commercial name : Dolby Digital Plus
Codec ID : A_EAC3
Duration : 1 h 38 min
Bit rate mode : Constant
Bit rate : 448 kb/s
Channel(s) : 6 channels
Channel layout : L R C LFE Ls Rs
Sampling rate : 48.0 kHz
Frame rate : 31.250 FPS (1536 SPF)
Compression mode : Lossy
Stream size : 317 MiB (8%)
Title : Dub
Language : Russian
Service kind : Complete Main
Default : No
Forced : No

Audio #3
ID : 4
Format : AC-3
Format/Info : Audio Coding 3
Commercial name : Dolby Digital
Codec ID : A_AC3
Duration : 1 h 38 min
Bit rate mode : Constant
Bit rate : 640 kb/s
Channel(s) : 6 channels
Channel layout : L R C LFE Ls Rs
Sampling rate : 48.0 kHz
Frame rate : 31.250 FPS (1536 SPF)
Compression mode : Lossy
Stream size : 452 MiB (11%)
Title : Original
Language : Spanish
Service kind : Complete Main
Default : No
Forced : No

Text #1
ID : 5
Format : UTF-8
Codec ID : S_TEXT/UTF8
Codec ID/Info : UTF-8 Plain Text
Duration : 1 h 33 min
Bit rate : 76 b/s
Frame rate : 0.198 FPS
Count of elements : 1114
Stream size : 52.8 KiB (0%)
Title : Full
Language : Russian
Default : No
Forced : No

Text #2
ID : 6
Format : UTF-8
Codec ID : S_TEXT/UTF8
Codec ID/Info : UTF-8 Plain Text
Duration : 1 h 33 min
Bit rate : 56 b/s
Frame rate : 0.249 FPS
Count of elements : 1399
Stream size : 38.7 KiB (0%)
Title : SDH
Language : Spanish
Default : No
Forced : No

Menu
00:00:00.000 : en:Глава 01
00:07:58.417 : en:Глава 02
00:15:10.167 : en:Глава 03
00:21:04.417 : en:Глава 04
00:27:58.458 : en:Глава 05
00:36:15.708 : en:Глава 06
00:41:37.875 : en:Глава 07
00:48:01.792 : en:Глава 08
00:55:44.042 : en:Глава 09
01:02:50.875 : en:Глава 10
01:09:45.333 : en:Глава 11
01:20:19.958 : en:Глава 12
01:33:58.833 : en:Глава 13

Другие фильмы
У данной публикации пока нет комментариев.
Будь первым, оставь своё мнение в комментариях!
Информация
Посетители, находящиеся в группе Гости, не могут оставлять комментарии к данной публикации.
Самый популярный релиз недели
Донаты
Мы в соц. сетях / RSS

Лучшие релизы месяца
Лучшие SD недели
Лучшие 720p недели
Лучшие 1080p недели
Лучшие 4K недели
Вы недавно смотрели
Реклама
Последние комментарии
...

Bonzo

14 июня 2024 14:52

...

rmzshka

13 июня 2024 17:48

...

rmzshka

13 июня 2024 12:24

...

LisNick

13 июня 2024 08:45

...

SkySpirit

8 июня 2024 19:54

Реклама