0

М3ган / M3GAN (2022) BDRip-AVC от DoMiNo селезень | D | Лицензия

Информация о фильме
Название: М3ган
Оригинальное название: M3GAN
Год выпуска: 2022
Выпущено: Новая Зеландия
Жанр: Ужасы, Фантастика, триллер
Режиссер: Джерард Джонстоун / Gerard Johnstone
В ролях: Эллисон Уильямс, Кимберли Кроссман, Вайолет Макгроу, Ронни Чиэн, Эми Дональд, Дженна Дэвис, Брайан Джордан Альварез, Джен Браун, Стефан Гарно, Лори Дунги, Эми Ашервуд, Джек Кэссиди, Майкл Сассенте, Samson Chan-Boon, Наташа Коджич

О фильме:
10-летняя Кэди вместе с папой и мамой попадает в автоаварию. Родители погибают, а девочка отправляется жить к тёте Джемме — сотруднице корпорации по производству технологичных игрушек. Не зная, как справиться с внезапно свалившейся на неё ответственностью, и не особо желая тратить на племянницу время, Джемма знакомит Кэди с экспериментальной куклой-андроидом М3ган, обладающей искусственным интеллектом. Первостепенной задачей новой «подружки» является защита ребёнка от всевозможного физического и морального вреда, и М3ган понимает это слишком буквально.

Страна: США, Новая Зеландия
Студия: Atomic Monster, Blumhouse Productions, Divide / Conquer, New Zealand Film Commission, Universal Pictures
Продолжительность: 01:41:56
Перевод: Профессиональный (полное дублирование) | Лицензия
Субтитры: Русские (Forced, 2 x full), украинские (Full), английские

Файл
Формат: Matroska
Качество: BDRip-AVC
Видео: 1024x428 at 23.976 fps, [email protected], ~1669 kbps
Аудио: AC3, 6 ch, ~384 kbps - | Русский | М3ган / M3GAN (2022) BDRip-AVC от DoMiNo селезень | D | Лицензия | Jaskier
Формат субтитров: softsub (SRT)

М3ган / M3GAN (2022) BDRip-AVC от DoMiNo селезень | D | Лицензия

Авторизуйтесь для получения доступа к скачиванию

Нет аккаунта? Регистрация открыта и займёт меньше минуты

Вход Регистрация

x264 [info]: frame I:1537 Avg QP:15.22 size: 55765
x264 [info]: frame P:29348 Avg QP:16.87 size: 19816
x264 [info]: frame B:115755 Avg QP:18.89 size: 5257

General
Unique ID : 279515946331048263307719890266222021803 (0xD248D0272487B5FFBA82169826B8CCAB)
Complete name : I:M3GAN.2022.D.BDRip.x264.seleZen.mkv
Format : Matroska
Format version : Version 4
File size : 1.46 GiB
Duration : 1 h 41 min
Overall bit rate : 2 056 kb/s
Frame rate : 23.976 FPS
Movie name : M3GAN.2022.D.BDRip.x264.seleZen
Encoded date : 26.05.2023 09:11:44 UTC
Writing application : mkvmerge v76.0 ('Celebration') 64-bit
Writing library : libebml v1.4.4 + libmatroska v1.7.1
Cover : Yes
Attachments : cover.jpg / small_cover.jpg

Video
ID : 1
Format : AVC
Format/Info : Advanced Video Codec
Format profile : [email protected]
Format settings : CABAC / 12 Ref Frames
Format settings, CABAC : Yes
Format settings, Reference : 12 frames
Codec ID : V_MPEG4/ISO/AVC
Duration : 1 h 41 min
Bit rate : 1 669 kb/s
Width : 1 024 pixels
Height : 428 pixels
Display aspect ratio : 2.40:1
Frame rate mode : Constant
Frame rate : 23.976 (24000/1001) FPS
Color space : YUV
Chroma subsampling : 4:2:0
Bit depth : 8 bits
Scan type : Progressive
Bits/(Pixel*Frame) : 0.159
Stream size : 1.19 GiB (81%)
Title : -=DoMiNo=-
Writing library : x264 core 164 r3107+58M ae98796 t_mod_New | by -=DoMiNo=- | X86_64]
Encoding settings : cabac=1 / ref=12 / deblock=1:-2:-2 / analyse=0×3:0×133 / me=umh / subme=10 / psy=1 / fade_compensate=0.00 / psy_rd=1.03:0.05 / mixed_ref=1 / me_range=32 / chroma_me=1 / trellis=2 / 8×8dct=1 / cqm=0 / deadzone=21,11 / fast_pskip=0 / chroma_qp_offset=-3 / threads=17 / lookahead_threads=3 / sliced_threads=0 / nr=0 / decimate=0 / interlaced=0 / bluray_compat=0 / constrained_intra=0 / fgo=0 / bframes=12 / b_pyramid=2 / b_adapt=2 / b_bias=0 / direct=3 / weightb=1 / open_gop=0 / weightp=2 / keyint=240 / keyint_min=23 / scenecut=40 / intra_refresh=0 / rc_lookahead=60 / rc=2pass / mbtree=0 / bitrate=1669 / ratetol=1.0 / qcomp=0.75 / qpmin=0:0:0 / qpmax=69:69:69 / qpstep=4 / cplxblur=20.0 / qblur=0.5 / vbv_maxrate=50000 / vbv_bufsize=62500 / nal_hrd=none / filler=0 / ip_ratio=1.20 / pb_ratio=1.30 / aq=3:0.90 / aq-sensitivity=10.00 / aq-factor=1.00:1.00:1.00:1.00 / aq2=0 / aq3=0
Language : English
Default : Yes
Forced : No

Audio
ID : 2
Format : AC-3
Format/Info : Audio Coding 3
Commercial name : Dolby Digital
Codec ID : A_AC3
Duration : 1 h 41 min
Bit rate mode : Constant
Bit rate : 384 kb/s
Channel (s) : 6 channels
Channel layout : L R C LFE Ls Rs
Sampling rate : 48.0 kHz
Frame rate : 31.250 FPS (1536 SPF)
Compression mode : Lossy
Stream size : 280 MiB (19%)
Title : Dub [Official]
Language : Russian
Service kind : Complete Main
Default : Yes
Forced : Yes

Text #1
ID : 3
Format : UTF-8
Codec ID : S_TEXT/UTF8
Codec ID/Info : UTF-8 Plain Text
Duration : 1 h 17 min
Bit rate : 2 b/s
Frame rate : 0.007 FPS
Count of elements : 33
Stream size : 1.55 KiB (0%)
Title : Forced [Official]
Language : Russian
Default : Yes
Forced : Yes

Text #2
ID : 4
Format : UTF-8
Codec ID : S_TEXT/UTF8
Codec ID/Info : UTF-8 Plain Text
Duration : 1 h 40 min
Bit rate : 102 b/s
Frame rate : 0.222 FPS
Count of elements : 1343
Stream size : 75.5 KiB (0%)
Title : Full [Official]
Language : Russian
Default : No
Forced : No

Text #3
ID : 5
Format : UTF-8
Codec ID : S_TEXT/UTF8
Codec ID/Info : UTF-8 Plain Text
Duration : 1 h 40 min
Bit rate : 96 b/s
Frame rate : 0.223 FPS
Count of elements : 1345
Stream size : 71.1 KiB (0%)
Title : Full [Official]
Language : Ukrainian
Default : No
Forced : No

Text #4
ID : 6
Format : UTF-8
Codec ID : S_TEXT/UTF8
Codec ID/Info : UTF-8 Plain Text
Duration : 1 h 32 min
Bit rate : 118 b/s
Frame rate : 0.196 FPS
Count of elements : 1092
Stream size : 80.7 KiB (0%)
Title : Full v.2
Language : Russian
Default : No
Forced : No

Text #5
ID : 7
Format : UTF-8
Codec ID : S_TEXT/UTF8
Codec ID/Info : UTF-8 Plain Text
Duration : 1 h 41 min
Bit rate : 69 b/s
Frame rate : 0.271 FPS
Count of elements : 1648
Stream size : 51.4 KiB (0%)
Title : Full
Language : English
Default : No
Forced : No

Text #6
ID : 8
Format : UTF-8
Codec ID : S_TEXT/UTF8
Codec ID/Info : UTF-8 Plain Text
Duration : 1 h 41 min
Bit rate : 76 b/s
Frame rate : 0.306 FPS
Count of elements : 1870
Stream size : 57.4 KiB (0%)
Title : SDH
Language : English
Default : No
Forced : No

Menu
00:00:00.000 : en:Chapter 01
00:03:55.569 : en:Chapter 02
00:10:42.851 : en:Chapter 03
00:14:50.223 : en:Chapter 04
00:19:44.392 : en:Chapter 05
00:24:06.445 : en:Chapter 06
00:28:16.904 : en:Chapter 07
00:33:19.331 : en:Chapter 08
00:39:19.357 : en:Chapter 09
00:45:08.789 : en:Chapter 10
00:50:47.252 : en:Chapter 11
00:57:35.369 : en:Chapter 12
01:01:03.868 : en:Chapter 13
01:05:36.724 : en:Chapter 14
01:09:41.094 : en:Chapter 15
01:15:49.670 : en:Chapter 16
01:18:24.366 : en:Chapter 17
01:21:31.762 : en:Chapter 18
01:29:06.549 : en:Chapter 19
01:33:51.334 : en:Chapter 20

Другие фильмы
У данной публикации пока нет комментариев.
Будь первым, оставь своё мнение в комментариях!
Информация
Посетители, находящиеся в группе Гости, не могут оставлять комментарии к данной публикации.
Самый популярный релиз недели
Донаты
Мы в соц. сетях / RSS

Лучшие релизы месяца
Лучшие SD недели
Лучшие 720p недели
Лучшие 1080p недели
Лучшие 4K недели
Вы недавно смотрели
Реклама
Последние комментарии
...

rmzshka

15 мая 2024 13:43

...

Andrey_Vladimirovich

13 мая 2024 18:12

...

Robot

13 мая 2024 16:53

...

rmzshka

13 мая 2024 16:21

...

supermehanik

13 мая 2024 02:03

Реклама