+2

Любовные штучки / Liebesdings (2022) WEB-DLRip-AVC от DoMiNo & селезень | D

Информация о фильме
Название: Любовные штучки
Оригинальное название: Liebesdings
Год выпуска: 2022
Жанр: Мелодрама, комедия
Режиссер: Аника Деккер
В ролях: Элиас М’Барек, Люси Хайнце, Пери Баумайстер, Линда Пёппель, Марен Кройман, Александра Мария Лара, Марко Альбрехт, Альмила Багрясик, Доминик Боэр, Кэти Бём

О фильме:
Марвин Бош — самый популярный актер страны. Он — звезда фильмов, ток-шоу и сериалов, за каждым его шагом следят десятки папарацци и миллионы поклонников. Однажды Марвин оступился, что сразу же стало достоянием всей страны, и вынужден теперь залечь на дно. Он находит временное пристанище в небольшом захудалом театре, находящемся на грани банкротства. Удастся ли Марвину восстановить свою репутацию и дать шанс настоящей любви, находясь под пристальным вниманием изумленной местной публики?

Выпущено: Германия, Constantin Film, Decker Bros.
Продолжительность: 01:31:12
Перевод: Дублированный | Vox Records

Файл
Формат: Matroska
Качество: WEB-DLRip-AVC
Видео: 1024x428 at 24.000 fps, [email protected], ~1911 kbps
Аудио: AC3, 6 ch, ~384 kbps - | Русский | Любовные штучки / Liebesdings (2022) WEB-DLRip-AVC от DoMiNo & селезень | D
Субтитры: Нет

Любовные штучки / Liebesdings (2022) WEB-DLRip-AVC от DoMiNo & селезень | D

Авторизуйтесь для получения доступа к скачиванию

Нет аккаунта? Регистрация открыта и займёт меньше минуты

Вход Регистрация

General
Unique ID : 332602552071927496803091024474303776946 (0xFA38EBE4E6854556AD7027E8AC6A48B2)
Complete name : I:Liebesdings.2022.WEB-DLRip.x264.seleZen.mkv
Format : Matroska
Format version : Version 4
File size : 1.46 GiB
Duration : 1 h 31 min
Overall bit rate : 2 298 kb/s
Frame rate : 24.000 FPS
Movie name : Liebesdings.2022.WEB-DLRip.x264.seleZen
Encoded date : 2023-05-25 18:57:01 UTC
Writing application : mkvmerge v76.0 ('Celebration') 64-bit
Writing library : libebml v1.4.4 + libmatroska v1.7.1
Cover : Yes
Attachments : cover.jpg / small_cover.jpg

Video
ID : 1
Format : AVC
Format/Info : Advanced Video Codec
Format profile : [email protected]
Format settings : CABAC / 10 Ref Frames
Format settings, CABAC : Yes
Format settings, Reference : 10 frames
Codec ID : V_MPEG4/ISO/AVC
Duration : 1 h 31 min
Bit rate : 1 911 kb/s
Width : 1 024 pixels
Height : 428 pixels
Display aspect ratio : 2.40:1
Frame rate mode : Constant
Frame rate : 24.000 FPS
Color space : YUV
Chroma subsampling : 4:2:0
Bit depth : 8 bits
Scan type : Progressive
Bits/(Pixel*Frame) : 0.182
Stream size : 1.22 GiB (83%)
Title : -=DoMiNo=-
Writing library : x264 core 164 r3107+58M ae98796 t_mod_New | by -=DoMiNo=- | X86_64]
Encoding settings : cabac=1 / ref=10 / deblock=1:-2:-1 / analyse=0x3:0x133 / me=umh / subme=10 / psy=1 / fade_compensate=0.00 / psy_rd=1.03:0.15 / mixed_ref=1 / me_range=32 / chroma_me=1 / trellis=2 / 8x8dct=1 / cqm=0 / deadzone=21,11 / fast_pskip=0 / chroma_qp_offset=-3 / threads=17 / lookahead_threads=3 / sliced_threads=0 / nr=0 / decimate=0 / interlaced=0 / bluray_compat=0 / constrained_intra=0 / fgo=0 / bframes=10 / b_pyramid=2 / b_adapt=2 / b_bias=0 / direct=3 / weightb=1 / open_gop=0 / weightp=2 / keyint=240 / keyint_min=24 / scenecut=40 / intra_refresh=0 / rc_lookahead=60 / rc=2pass / mbtree=0 / bitrate=1911 / ratetol=1.0 / qcomp=0.70 / qpmin=0:0:0 / qpmax=69:69:69 / qpstep=4 / cplxblur=20.0 / qblur=0.5 / vbv_maxrate=50000 / vbv_bufsize=62500 / nal_hrd=none / filler=0 / ip_ratio=1.18 / pb_ratio=1.33 / aq=1:0.90 / aq-sensitivity=10.00 / aq-factor=1.00:1.00:1.00 / aq2=0 / aq3=0
Language : English
Default : Yes
Forced : No

Audio
ID : 2
Format : AC-3
Format/Info : Audio Coding 3
Commercial name : Dolby Digital
Codec ID : A_AC3
Duration : 1 h 31 min
Bit rate mode : Constant
Bit rate : 384 kb/s
Channel(s) : 6 channels
Channel layout : L R C LFE Ls Rs
Sampling rate : 48.0 kHz
Frame rate : 31.250 FPS (1536 SPF)
Compression mode : Lossy
Stream size : 251 MiB (17%)
Title : DUB (Vox Records)
Language : Russian
Service kind : Complete Main
Default : Yes
Forced : Yes

Menu
00:00:00.000 : en:Глава 01
00:11:40.000 : en:Глава 02
00:23:20.000 : en:Глава 03
00:35:00.000 : en:Глава 04
00:46:40.000 : en:Глава 05
00:58:20.000 : en:Глава 06
01:10:00.000 : en:Глава 07
01:21:40.000 : en:Глава 08

Другие фильмы
У данной публикации пока нет комментариев.
Будь первым, оставь своё мнение в комментариях!
Информация
Посетители, находящиеся в группе Гости, не могут оставлять комментарии к данной публикации.
Самый популярный релиз недели
Донаты
Мы в соц. сетях / RSS

Лучшие релизы месяца
Лучшие SD недели
Лучшие 720p недели
Лучшие 1080p недели
Лучшие 4K недели
Вы недавно смотрели
Реклама
Последние комментарии
...

korelov

23 февраля 2024 14:35

...

Desol

21 февраля 2024 00:28

...

diabloq

20 февраля 2024 14:17

...

slightlymad

17 февраля 2024 21:01

...

takezi

15 февраля 2024 22:10

Реклама