+3

Барун Рай и дом на утёсе / Barun Rai and the House on the Cliff (2021) WEB-DLRip-AVC от DoMiNo & селезень | P

Информация о фильме
Название: Барун Рай и дом на утёсе
Оригинальное название: Barun Rai and the House on the Cliff
Жанр: ужасы, триллер
Год выпуска: 2021
Режиссер: Сэм Бхаттачарджи / Sam Bhattacharjee
В ролях: Прияншу Чаттерджи, Мадхурима Банерджи, Сиддхартх Маккар, George Dawson, Шон Диксон, Тони Ричардсон, Aakash Shukal, Ayvianna Snow, Адам Дэй, Мирабель Стюарт

Описание:
Молодожёны Хармеш и Сумили переезжают в красивый дом на скале в городке Корвидс-Хэд в Англии. В первую же ночь безмятежность их медового месяца будет нарушена вторжением полтергейста – неведомая злая сущность стремится проникнуть в дом и особенно недоброжелательна к Хармешу. Помочь семье вызовется детектив Барун Рай – единственный в своём роде полицейский-медиум со сверхъестественным чутьём и способностью видеть призраков.

Страна: Великобритания, Индия
Студия: Unicorn Motion Pictures
Продолжительность: 01:58:42
Перевод: Профессиональный (многоголосый, закадровый) | TVShows
Субтитры: Английские (Full, SDH)

Файл
Формат: Matroska
Качество: WEB-DLRip-AVC
Видео: 1024x426 at 24.000 fps, [email protected], ~1571 kbps
Аудио: AC3, 2 ch, ~192 kbps - | Русский | Барун Рай и дом на утёсе / Barun Rai and the House on the Cliff (2021) WEB-DLRip-AVC от DoMiNo & селезень | P
Формат субтитров: softsub (SRT)

Барун Рай и дом на утёсе / Barun Rai and the House on the Cliff (2021) WEB-DLRip-AVC от DoMiNo & селезень | P

Авторизуйтесь для получения доступа к скачиванию

Нет аккаунта? Регистрация открыта и займёт меньше минуты

Вход Регистрация

General
Unique ID : 170046526663524082594284588956758693678 (0x7FEDC50F41709A9E49730E3F93E1D72E)
Complete name : I:Barun.Rai.and.the.House.on.the.Cliff.2023.MVO.WEB-DLRip.x264.seleZen.mkv
Format : Matroska
Format version : Version 4
File size : 1.46 GiB
Duration : 1 h 58 min
Overall bit rate : 1 764 kb/s
Frame rate : 24.000 FPS
Movie name : Barun.Rai.and.the.House.on.the.Cliff.2023.MVO.WEB-DLRip.x264.seleZen
Encoded date : 2023-05-25 13:21:48 UTC
Writing application : mkvmerge v76.0 ('Celebration') 64-bit
Writing library : libebml v1.4.4 + libmatroska v1.7.1
Cover : Yes
Attachments : cover.jpg / small_cover.jpg

Video
ID : 1
Format : AVC
Format/Info : Advanced Video Codec
Format profile : [email protected]
Format settings : CABAC / 10 Ref Frames
Format settings, CABAC : Yes
Format settings, Reference : 10 frames
Codec ID : V_MPEG4/ISO/AVC
Duration : 1 h 58 min
Bit rate : 1 571 kb/s
Width : 1 024 pixels
Height : 426 pixels
Display aspect ratio : 2.40:1
Frame rate mode : Constant
Frame rate : 24.000 FPS
Color space : YUV
Chroma subsampling : 4:2:0
Bit depth : 8 bits
Scan type : Progressive
Bits/(Pixel*Frame) : 0.150
Stream size : 1.30 GiB (89%)
Title : -=DoMiNo=-
Writing library : x264 core 164 r3107+58M ae98796 t_mod_New | by -=DoMiNo=- | X86_64]
Encoding settings : cabac=1 / ref=10 / deblock=1:-2:-1 / analyse=0x3:0x133 / me=umh / subme=10 / psy=1 / fade_compensate=0.00 / psy_rd=1.05:0.15 / mixed_ref=1 / me_range=32 / chroma_me=1 / trellis=2 / 8x8dct=1 / cqm=0 / deadzone=21,11 / fast_pskip=0 / chroma_qp_offset=-3 / threads=17 / lookahead_threads=3 / sliced_threads=0 / nr=0 / decimate=0 / interlaced=0 / bluray_compat=0 / constrained_intra=0 / fgo=0 / bframes=10 / b_pyramid=2 / b_adapt=2 / b_bias=0 / direct=3 / weightb=1 / open_gop=0 / weightp=2 / keyint=240 / keyint_min=24 / scenecut=40 / intra_refresh=0 / rc_lookahead=60 / rc=2pass / mbtree=0 / bitrate=1571 / ratetol=1.0 / qcomp=0.70 / qpmin=0:0:0 / qpmax=69:69:69 / qpstep=4 / cplxblur=20.0 / qblur=0.5 / vbv_maxrate=50000 / vbv_bufsize=62500 / nal_hrd=none / filler=0 / ip_ratio=1.18 / pb_ratio=1.32 / aq=1:0.90 / aq-sensitivity=10.00 / aq-factor=1.00:1.00:1.00 / aq2=0 / aq3=0
Language : English
Default : Yes
Forced : No
Color range : Limited
Color primaries : BT.709
Transfer characteristics : BT.709
Matrix coefficients : BT.709

Audio
ID : 2
Format : AC-3
Format/Info : Audio Coding 3
Commercial name : Dolby Digital
Codec ID : A_AC3
Duration : 1 h 58 min
Bit rate mode : Constant
Bit rate : 192 kb/s
Channel(s) : 2 channels
Channel layout : L R
Sampling rate : 48.0 kHz
Frame rate : 31.250 FPS (1536 SPF)
Compression mode : Lossy
Stream size : 163 MiB (11%)
Title : TVShows
Language : Russian
Service kind : Complete Main
Default : Yes
Forced : Yes

Text #1
ID : 3
Format : UTF-8
Codec ID : S_TEXT/UTF8
Codec ID/Info : UTF-8 Plain Text
Duration : 1 h 55 min
Bit rate : 37 b/s
Frame rate : 0.160 FPS
Count of elements : 1105
Stream size : 31.7 KiB (0%)
Title : English
Language : English
Default : No
Forced : No

Text #2
ID : 4
Format : UTF-8
Codec ID : S_TEXT/UTF8
Codec ID/Info : UTF-8 Plain Text
Duration : 1 h 56 min
Bit rate : 50 b/s
Frame rate : 0.222 FPS
Count of elements : 1555
Stream size : 43.4 KiB (0%)
Title : English [SDH]
Language : English
Default : No
Forced : No

Menu
00:00:00.000 : en:Глава 01
00:11:40.000 : en:Глава 02
00:23:20.000 : en:Глава 03
00:35:00.000 : en:Глава 04
00:46:40.000 : en:Глава 05
00:58:20.000 : en:Глава 06
01:10:00.000 : en:Глава 07
01:21:40.000 : en:Глава 08
01:33:20.000 : en:Глава 09
01:45:00.000 : en:Глава 10
01:56:40.000 : en:Глава 11

Другие фильмы
У данной публикации пока нет комментариев.
Будь первым, оставь своё мнение в комментариях!
Информация
Посетители, находящиеся в группе Гости, не могут оставлять комментарии к данной публикации.
Самый популярный релиз недели
Донаты
Мы в соц. сетях / RSS

Лучшие релизы месяца
Лучшие SD недели
Лучшие 720p недели
Лучшие 1080p недели
Лучшие 4K недели
Вы недавно смотрели
Реклама
Последние комментарии
...

rmzshka

15 мая 2024 13:43

...

Andrey_Vladimirovich

13 мая 2024 18:12

...

Robot

13 мая 2024 16:53

...

rmzshka

13 мая 2024 16:21

...

supermehanik

13 мая 2024 02:03

Реклама