+1

М3ган / M3GAN (2022) BDRip 720p от селезень | Лицензия

Информация о фильме
Название: М3ГАН
Оригинальное название: M3GAN
Год выхода: 2022
Жанр: Ужасы, Фантастика, триллер
Режиссер: Джерард Джонстоун
В ролях: Эллисон Уильямс, Вайолет Макгроу, Эми Дональд, Дженна Дэвис, Ронни Чиэн, Брайан Джордан Альварез, Джен Браун, Стефан Гарно, Лори Дунги, Эми Ашервуд

О фильме: 10-летняя Кэди вместе с папой и мамой попадает в автоаварию. Родители погибают, а девочка отправляется жить к тёте Джемме - сотруднице корпорации по производству технологичных игрушек. Не зная, как справиться с внезапно свалившейся на неё ответственностью, и не особо желая тратить на племянницу время, Джемма знакомит Кэди с экспериментальной куклой-андроидом М3ган, обладающей искусственным интеллектом. Первостепенной задачей новой «подружки» является защита ребёнка от всевозможного физического и морального вреда, и М3ган понимает это слишком буквально.

Страна: США, Новая Зеландия
Студия: Atomic Monster, Blumhouse Productions, Divide / Conquer, New Zealand Film Commission, Universal Pictures
Продолжительность: 01:41:56
Перевод: Дублированный | Лицензия
Субтитры: Русские (Forced, 2 x full), украинские (Full), английские

Файл
Формат: Matroska
Качество: BDRip 720p
Видео: 1280x536 at 23.976 fps, [email protected], ~4214 kbps
Аудио 1: AC3, 6 ch, ~384 kbps - | Русский | М3ган / M3GAN (2022) BDRip 720p от селезень | Лицензия | Лицензия
Аудио 2: AC3, 6 ch, ~640 kbps - | Английский | | Original
Формат субтитров: softsub (SRT)

М3ган / M3GAN (2022) BDRip 720p от селезень | Лицензия

Авторизуйтесь для получения доступа к скачиванию

Нет аккаунта? Регистрация открыта и займёт меньше минуты

Вход Регистрация

General
Unique ID : 133136237509717541005570233887437261156 (0x64291B4D6F25890F2386DE7F3DAA8964)
Complete name : E:\VideoE\M3GAN.2022.D.BDRip.720p.seleZen.mkv
Format : Matroska
Format version : Version 4
File size : 3.73 GiB
Duration : 1 h 41 min
Overall bit rate : 5 241 kb/s
Frame rate : 23.976 FPS
Movie name : M3GAN 2022 from seleZen
Encoded date : 2023-05-25 12:42:52 UTC
Writing application : mkvmerge v59.0.0 ('Shining Star') 64-bit
Writing library : libebml v1.4.2 + libmatroska v1.6.4

Video
ID : 1
Format : AVC
Format/Info : Advanced Video Codec
Format profile : [email protected]
Format settings : CABAC / 12 Ref Frames
Format settings, CABAC : Yes
Format settings, Reference : 12 frames
Codec ID : V_MPEG4/ISO/AVC
Duration : 1 h 41 min
Bit rate : 4 214 kb/s
Width : 1 280 pixels
Height : 536 pixels
Display aspect ratio : 2.40:1
Frame rate mode : Constant
Frame rate : 23.976 (24000/1001) FPS
Color space : YUV
Chroma subsampling : 4:2:0
Bit depth : 8 bits
Scan type : Progressive
Bits/(Pixel*Frame) : 0.256
Stream size : 3.00 GiB (80%)
Title : MTeam
Writing library : x264 core 157 r2938 2b00a84 TnP@MTeam Mod
Encoding settings : cabac=1 / ref=12 / deblock=1:-3:-3 / analyse=0x3:0x133 / me=umh / subme=10 / psy=1 / psy_rd=1.05:0.00 / mixed_ref=1 / me_range=32 / chroma_me=1 / trellis=2 / 8x8dct=1 / cqm=0 / deadzone=21,11 / fast_pskip=0 / chroma_qp_offset=-2 / threads=12 / lookahead_threads=2 / sliced_threads=0 / nr=0 / decimate=0 / interlaced=0 / bluray_compat=0 / constrained_intra=0 / bframes=8 / b_pyramid=2 / b_adapt=2 / b_bias=0 / direct=3 / weightb=1 / open_gop=0 / weightp=2 / keyint=250 / keyint_min=24 / scenecut=40 / intra_refresh=0 / rc_lookahead=250 / rc=crf / mbtree=0 / crf=16.8 / qcomp=0.60 / qpmin=0 / qpmax=69 / qpstep=4 / vbv_maxrate=62500 / vbv_bufsize=78125 / crf_max=0.0 / nal_hrd=none / filler=0 / ip_ratio=1.30 / pb_ratio=1.20 / aq=3:0.80
Language : English
Default : Yes
Forced : No
Color range : Limited
Color primaries : BT.709
Matrix coefficients : BT.709

Audio #1
ID : 2
Format : AC-3
Format/Info : Audio Coding 3
Commercial name : Dolby Digital
Codec ID : A_AC3
Duration : 1 h 41 min
Bit rate mode : Constant
Bit rate : 384 kb/s
Channel(s) : 6 channels
Channel layout : L R C LFE Ls Rs
Sampling rate : 48.0 kHz
Frame rate : 31.250 FPS (1536 SPF)
Compression mode : Lossy
Stream size : 280 MiB (7%)
Title : Dub [Official]
Language : Russian
Service kind : Complete Main
Default : Yes
Forced : Yes

Audio #2
ID : 3
Format : AC-3
Format/Info : Audio Coding 3
Commercial name : Dolby Digital
Codec ID : A_AC3
Duration : 1 h 41 min
Bit rate mode : Constant
Bit rate : 640 kb/s
Channel(s) : 6 channels
Channel layout : L R C LFE Ls Rs
Sampling rate : 48.0 kHz
Frame rate : 31.250 FPS (1536 SPF)
Compression mode : Lossy
Stream size : 467 MiB (12%)
Title : Original
Language : English
Service kind : Complete Main
Default : No
Forced : No

Text #1
ID : 4
Format : UTF-8
Codec ID : S_TEXT/UTF8
Codec ID/Info : UTF-8 Plain Text
Duration : 1 h 17 min
Bit rate : 2 b/s
Frame rate : 0.007 FPS
Count of elements : 33
Stream size : 1.55 KiB (0%)
Title : Forced [Official]
Language : Russian
Default : Yes
Forced : Yes

Text #2
ID : 5
Format : UTF-8
Codec ID : S_TEXT/UTF8
Codec ID/Info : UTF-8 Plain Text
Duration : 1 h 40 min
Bit rate : 102 b/s
Frame rate : 0.222 FPS
Count of elements : 1343
Stream size : 75.5 KiB (0%)
Title : Full [Official]
Language : Russian
Default : No
Forced : No

Text #3
ID : 6
Format : UTF-8
Codec ID : S_TEXT/UTF8
Codec ID/Info : UTF-8 Plain Text
Duration : 1 h 40 min
Bit rate : 96 b/s
Frame rate : 0.223 FPS
Count of elements : 1345
Stream size : 71.1 KiB (0%)
Title : Full [Official]
Language : Ukrainian
Default : No
Forced : No

Text #4
ID : 7
Format : UTF-8
Codec ID : S_TEXT/UTF8
Codec ID/Info : UTF-8 Plain Text
Duration : 1 h 32 min
Bit rate : 118 b/s
Frame rate : 0.196 FPS
Count of elements : 1092
Stream size : 80.7 KiB (0%)
Title : Full v.2
Language : Russian
Default : No
Forced : No

Text #5
ID : 8
Format : UTF-8
Codec ID : S_TEXT/UTF8
Codec ID/Info : UTF-8 Plain Text
Duration : 1 h 41 min
Bit rate : 69 b/s
Frame rate : 0.271 FPS
Count of elements : 1648
Stream size : 51.4 KiB (0%)
Title : Full
Language : English
Default : No
Forced : No

Text #6
ID : 9
Format : UTF-8
Codec ID : S_TEXT/UTF8
Codec ID/Info : UTF-8 Plain Text
Duration : 1 h 41 min
Bit rate : 76 b/s
Frame rate : 0.306 FPS
Count of elements : 1870
Stream size : 57.4 KiB (0%)
Title : SDH
Language : English
Default : No
Forced : No

Menu
00:00:00.000 : Chapter 01
00:03:55.569 : Chapter 02
00:10:42.851 : Chapter 03
00:14:50.223 : Chapter 04
00:19:44.392 : Chapter 05
00:24:06.445 : Chapter 06
00:28:16.904 : Chapter 07
00:33:19.331 : Chapter 08
00:39:19.357 : Chapter 09
00:45:08.789 : Chapter 10
00:50:47.252 : Chapter 11
00:57:35.369 : Chapter 12
01:01:03.868 : Chapter 13
01:05:36.724 : Chapter 14
01:09:41.094 : Chapter 15
01:15:49.670 : Chapter 16
01:18:24.366 : Chapter 17
01:21:31.762 : Chapter 18
01:29:06.549 : Chapter 19
01:33:51.334 : Chapter 20

Другие фильмы
У данной публикации пока нет комментариев.
Будь первым, оставь своё мнение в комментариях!
Информация
Посетители, находящиеся в группе Гости, не могут оставлять комментарии к данной публикации.
Самый популярный релиз недели
Донаты
Мы в соц. сетях / RSS

Лучшие релизы месяца
Лучшие SD недели
Лучшие 720p недели
Лучшие 1080p недели
Лучшие 4K недели
Вы недавно смотрели
Реклама
Последние комментарии
...

-=DoMiNo=-

9 апреля 2024 17:43

...

supermehanik

9 апреля 2024 16:22

...

selezinka

5 апреля 2024 16:20

...

Kirk1991

30 марта 2024 15:04

...

Robot

22 марта 2024 09:33

Реклама