+8

Джон Уик 4 / John Wick: Chapter 4 (2023) WEB-DLRip 720p от DoMiNo & селезень | P

[Информация о фильме
Название: Джон Уик 4
Оригинальное название: John Wick: Chapter 4
Год выхода: 2023
Жанр: Боевик, триллер, криминал
Режиссер: Чад Стахелски
В ролях: Киану Ривз, Донни Йен, Билл Скарсгард, Лоренс Фишберн, Хироюки Санада, Шамир Андерсон, Лэнс Реддик, Рина Саваяма, Скотт Эдкинс, Иэн МакШейн, Марко Зарор, Наталия Тена, Клэнси Браун

О фильме:
Джон Уик выходит на финишную прямую к победе над Правлением кланов и своей свободе. Но сначала ему предстоит сразиться с новым противником, за которым стоит могущественный мировой альянс и силы, превращающие старых друзей в заклятых врагов. «Джон Уик 4» — четвертая часть боевика о неутомимом киллере в исполнении Киану Ривза.

Страна: США, Германия
Студия: 87Eleven Entertainment, Lionsgate, Summit Entertainment, Thunder Road
Продолжительность: 02:49:17
Перевод 1: Профессиональный многоголосый | HDRezka Studio
Перевод 2: Профессиональный многоголосый | Jaskier 18 +
Перевод 3: Профессиональный многоголосый | TVShows
Субтитры: Русские (Forced, Full (FOCS и RebelProject)), Английские (Full, SDH)

Файл
Формат: Matroska
Качество: WEB-DLRip 720p [исх.John.Wick.Chapter.4.2023.2160p.AMZN.WEB-DL.DDP5.1.Atmos.HEVC-CMRG]
Видео: 1280x534 at 23.976 fps, [email protected], ~2863 kbps
Аудио 1: AC3, 6 ch, ~448 kbps - | Русский | Джон Уик 4 / John Wick: Chapter 4 (2023) WEB-DLRip 720p от DoMiNo & селезень | P | HDRezka Studio
Аудио 2: AC3, 6 ch, ~384 kbps - | Русский | | Jaskier
Аудио 3: AC3, 6 ch, ~384 kbps - | Русский | | TVShows
Аудио 4: AC3, 6 ch, ~448 kbps - | Английский | | Original
Формат субтитров: softsub (SRT)

Джон Уик 4 / John Wick: Chapter 4 (2023) WEB-DLRip 720p от DoMiNo & селезень | P

Авторизуйтесь для получения доступа к скачиванию

Нет аккаунта? Регистрация открыта и займёт меньше минуты

Вход Регистрация

x264 [info]: frame I:1864 Avg QP:16.59 size: 83744
x264 [info]: frame P:61569 Avg QP:18.77 size: 28862
x264 [info]: frame B:180107 Avg QP:20.98 size: 9452

General
Unique ID : 56816827029772316978100150359241938927 (0×2ABE85D9A3CE7C311DAA5B69704657EF)
Complete name : H:John.Wick.Chapter.4.2023.3xMVO.WEB-DLRip.720p.x264.seleZen.mkv
Format : Matroska
Format version : Version 4
File size : 5.36 GiB
Duration : 2 h 49 min
Overall bit rate : 4 530 kb/s
Frame rate : 23.976 FPS
Movie name : John.Wick.Chapter.4.2023.3xMVO.WEB-DLRip.720p.x264.seleZen
Encoded date : 25.05.2023 16:21:17 UTC
Writing application : mkvmerge v76.0 ('Celebration') 64-bit
Writing library : libebml v1.4.4 + libmatroska v1.7.1
Cover : Yes
Attachments : cover.jpg / small_cover.jpg

Video
ID : 1
Format : AVC
Format/Info : Advanced Video Codec
Format profile : [email protected]
Format settings : CABAC / 9 Ref Frames
Format settings, CABAC : Yes
Format settings, Reference : 9 frames
Codec ID : V_MPEG4/ISO/AVC
Duration : 2 h 49 min
Bit rate : 2 863 kb/s
Width : 1 280 pixels
Height : 534 pixels
Display aspect ratio : 2.40:1
Frame rate mode : Constant
Frame rate : 23.976 (24000/1001) FPS
Color space : YUV
Chroma subsampling : 4:2:0
Bit depth : 8 bits
Scan type : Progressive
Bits/(Pixel*Frame) : 0.175
Stream size : 3.39 GiB (63%)
Title : -=DoMiNo=-
Writing library : x264 core 164 r3107+58M ae98796 t_mod_New | by -=DoMiNo=- | X86_64]
Encoding settings : cabac=1 / ref=9 / deblock=1:-2:-1 / analyse=0×3:0×133 / me=umh / subme=10 / psy=1 / fade_compensate=0.00 / psy_rd=1.02:0.15 / mixed_ref=1 / me_range=32 / chroma_me=1 / trellis=2 / 8×8dct=1 / cqm=0 / deadzone=21,11 / fast_pskip=0 / chroma_qp_offset=-3 / threads=17 / lookahead_threads=4 / sliced_threads=0 / nr=0 / decimate=1 / interlaced=0 / bluray_compat=0 / constrained_intra=0 / fgo=0 / bframes=12 / b_pyramid=2 / b_adapt=2 / b_bias=0 / direct=3 / weightb=1 / open_gop=0 / weightp=2 / keyint=240 / keyint_min=23 / scenecut=40 / intra_refresh=0 / rc_lookahead=60 / rc=crf / mbtree=0 / crf=18.8000 / qcomp=0.60 / qpmin=0:0:0 / qpmax=69:69:69 / qpstep=4 / vbv_maxrate=50000 / vbv_bufsize=62500 / crf_max=0.0 / nal_hrd=none / filler=0 / ip_ratio=1.35 / pb_ratio=1.25 / aq=2:0.90 / aq-sensitivity=10.00 / aq-factor=1.00:1.00:1.00 / aq2=0 / aq3=0
Language : English
Default : Yes
Forced : No
Color range : Limited
Color primaries : BT.709
Transfer characteristics : BT.709
Matrix coefficients : BT.709

Audio #1
ID : 2
Format : AC-3
Format/Info : Audio Coding 3
Commercial name : Dolby Digital
Codec ID : A_AC3
Duration : 2 h 49 min
Bit rate mode : Constant
Bit rate : 448 kb/s
Channel (s) : 6 channels
Channel layout : L R C LFE Ls Rs
Sampling rate : 48.0 kHz
Frame rate : 31.250 FPS (1536 SPF)
Compression mode : Lossy
Stream size : 542 MiB (10%)
Title : HDRezka Studio
Language : Russian
Service kind : Complete Main
Default : Yes
Forced : Yes

Audio #2
ID : 3
Format : AC-3
Format/Info : Audio Coding 3
Commercial name : Dolby Digital
Codec ID : A_AC3
Duration : 2 h 49 min
Bit rate mode : Constant
Bit rate : 384 kb/s
Channel (s) : 6 channels
Channel layout : L R C LFE Ls Rs
Sampling rate : 48.0 kHz
Frame rate : 31.250 FPS (1536 SPF)
Compression mode : Lossy
Stream size : 465 MiB (8%)
Title : Jaskier +18
Language : Russian
Service kind : Complete Main
Default : No
Forced : No

Audio #3
ID : 4
Format : AC-3
Format/Info : Audio Coding 3
Commercial name : Dolby Digital
Codec ID : A_AC3
Duration : 2 h 49 min
Bit rate mode : Constant
Bit rate : 384 kb/s
Channel (s) : 6 channels
Channel layout : L R C LFE Ls Rs
Sampling rate : 48.0 kHz
Frame rate : 31.250 FPS (1536 SPF)
Compression mode : Lossy
Stream size : 465 MiB (8%)
Title : TVShows
Language : Russian
Service kind : Complete Main
Default : No
Forced : No

Audio #4
ID : 5
Format : AC-3
Format/Info : Audio Coding 3
Commercial name : Dolby Digital
Codec ID : A_AC3
Duration : 2 h 49 min
Bit rate mode : Constant
Bit rate : 448 kb/s
Channel (s) : 6 channels
Channel layout : L R C LFE Ls Rs
Sampling rate : 48.0 kHz
Frame rate : 31.250 FPS (1536 SPF)
Compression mode : Lossy
Stream size : 542 MiB (10%)
Title : Original
Language : English
Service kind : Complete Main
Default : No
Forced : No

Text #1
ID : 6
Format : UTF-8
Codec ID : S_TEXT/UTF8
Codec ID/Info : UTF-8 Plain Text
Duration : 2 h 24 min
Bit rate : 2 b/s
Frame rate : 0.008 FPS
Count of elements : 68
Stream size : 2.47 KiB (0%)
Title : Forced [HDRezka Studio]
Language : Russian
Default : Yes
Forced : Yes

Text #2
ID : 7
Format : UTF-8
Codec ID : S_TEXT/UTF8
Codec ID/Info : UTF-8 Plain Text
Duration : 2 h 38 min
Bit rate : 41 b/s
Frame rate : 0.117 FPS
Count of elements : 1118
Stream size : 48.5 KiB (0%)
Title : FOCS и RebelProject
Language : Russian
Default : No
Forced : No

Text #3
ID : 8
Format : UTF-8
Codec ID : S_TEXT/UTF8
Codec ID/Info : UTF-8 Plain Text
Duration : 2 h 39 min
Bit rate : 21 b/s
Frame rate : 0.111 FPS
Count of elements : 1063
Stream size : 25.4 KiB (0%)
Title : Full
Language : English
Default : No
Forced : No

Text #4
ID : 9
Format : UTF-8
Codec ID : S_TEXT/UTF8
Codec ID/Info : UTF-8 Plain Text
Duration : 2 h 48 min
Bit rate : 28 b/s
Frame rate : 0.158 FPS
Count of elements : 1595
Stream size : 35.1 KiB (0%)
Title : English CC
Language : English
Default : No
Forced : No

Menu
00:00:00.000 : en:Chapter 01
00:13:44.532 : en:Chapter 02
00:25:42.292 : en:Chapter 03
00:38:32.604 : en:Chapter 04
00:51:26.294 : en:Chapter 05
01:06:42.002 : en:Chapter 06
01:22:05.216 : en:Chapter 07
01:36:19.738 : en:Chapter 08
01:50:58.575 : en:Chapter 09
02:04:17.415 : en:Chapter 10
02:17:52.939 : en:Chapter 11
02:27:14.000 : en:Chapter 12
02:39:02.792 : en:Chapter 13

Другие фильмы
У данной публикации пока нет комментариев.
Будь первым, оставь своё мнение в комментариях!
Информация
Посетители, находящиеся в группе Гости, не могут оставлять комментарии к данной публикации.
Самый популярный релиз недели
Донаты
Мы в соц. сетях / RSS

Лучшие релизы месяца
Лучшие SD недели
Лучшие 720p недели
Лучшие 1080p недели
Лучшие 4K недели
Вы недавно смотрели
Реклама
Последние комментарии
...

rmzshka

15 мая 2024 13:43

...

Andrey_Vladimirovich

13 мая 2024 18:12

...

Robot

13 мая 2024 16:53

...

rmzshka

13 мая 2024 16:21

...

supermehanik

13 мая 2024 02:03

Реклама