+18

Блуждающая Земля 2 / Liu lang di qiu 2 / The Wandering Earth II (2023) BDRip-AVC от DoMiNo & селезень | D, P

Информация о фильме
Название: Блуждающая Земля 2
Оригинальное название: Liu lang di qiu 2 / The Wandering Earth II
Год выхода: 2023
Жанр: Фантастика, боевик
Режиссер: Франт Гво
В ролях: Джеки У, Энди Лау, Ли Сюэцзянь, Ша И, Нин Ли, Ван Чжи, Чжу Яньманьцзы, Энди Френд, Тун Лия, Зина Блахусова

Описание:
Солнце угасает. Последний шанс человечества на спасение — поиск нового дома. Объединившись, люди находят возможность изменить орбиту Земли, отправившись в неизвестность. Но это путешествие на много сотен световых лет во тьму несет разрушение и хаос. Планета растерзана катаклизмами, в которых выживут далеко не все. И все же только в бесконечной пустоте можно обрести новую жизнь.

Страна: Китай
Студия: Beijing Dengfeng International Culture Communications Company, CFC Pictures, China Film Co., Ltd., G!Film Studio, Rollin Studios
Продолжительность: 02:53:11
Перевод #1: Дублированный | Велес
Перевод #2: Профессиональный (многоголосый, закадровый) | TVShows
Субтитры: Русские (Forced, Full), Английские

Файл
Формат: Matroska
Качество: BDRip-AVC
Видео: 1024x428 at 24.000 fps, [email protected], ~1763 kbps
Аудио 1: AC3, 6 ch, ~384 kbps - | Русский | Блуждающая Земля 2 / Liu lang di qiu 2 / The Wandering Earth II (2023) BDRip-AVC от DoMiNo & селезень | D, P | Дублированный | Велес
Аудио 2: AC3, 6 ch, ~448 kbps - | Русский | | MVO | TVShows
Формат субтитров: softsub (SRT)

*** Получение шестиканальной звуковой дорожки, профессионального многоголосого закадрового озвучивания, достигнуто выделением голосов со стерео дорожки и последующего наложения их на центральный канал оригинальной китайской 5.1 звуковой дорожки.

Авторизуйтесь для получения доступа к скачиванию

Нет аккаунта? Регистрация открыта и займёт меньше минуты

Вход Регистрация

General
Unique ID: 185786640786921274200634883723828510557 (0×8BC5349A10F6DAEC23058851A6D9BF5D)
Complete name: R: The.Wandering.Earth.II.2023.BDRip.x264.seleZen.mkv
Format: Matroska
Format version: Version 4
File size: 3.14 GiB
Duration: 2 h 53 min
Overall bit rate: 2 597 kb/s
Frame rate: 24.000 FPS
Movie name: The.Wandering.Earth.II.2023.BDRip.x264.seleZen
Encoded date: 02.11.2023 18:52:27 UTC
Writing application: mkvmerge v80.0 ('Roundabout') 64-bit
Writing library: libebml v1.4.4 + libmatroska v1.7.1
Cover: Yes
Attachments: cover.jpg / small_cover.jpg

Video
ID: 1
Format: AVC
Format/Info: Advanced Video Codec
Format profile: [email protected]
Format settings: CABAC / 12 Ref Frames
Format settings, CABAC: Yes
Format settings, Reference: 12 frames
Codec ID: V_MPEG4/ISO/AVC
Duration: 2 h 53 min
Bit rate: 1 763 kb/s
Width: 1 024 pixels
Height: 428 pixels
Display aspect ratio: 2.40:1
Frame rate mode: Constant
Frame rate: 24.000 FPS
Color space: YUV
Chroma subsampling: 4:2:0
Bit depth: 8 bits
Scan type: Progressive
Bits/(Pixel*Frame): 0.168
Stream size: 2.13 GiB (68%)
Title: -=DoMiNo=-
Writing library: x264 core 164 r3156 _DoMiNo
Encoding settings: cabac=1 / ref=12 / deblock=1:-2:-2 / analyse=0×3:0×133 / me=umh / subme=10 / psy=1 / psy_rd=1.02:0.03 / mixed_ref=1 / me_range=32 / chroma_me=1 / trellis=2 / 8×8dct=1 / cqm=0 / deadzone=21,11 / fast_pskip=0 / chroma_qp_offset=-3 / threads=17 / lookahead_threads=3 / sliced_threads=0 / nr=0 / decimate=1 / interlaced=0 / bluray_compat=0 / constrained_intra=0 / bframes=14 / b_pyramid=2 / b_adapt=2 / b_bias=0 / direct=3 / weightb=1 / open_gop=0 / weightp=2 / keyint=250 / keyint_min=24 / scenecut=40 / intra_refresh=0 / rc_lookahead=60 / rc=crf / mbtree=0 / crf=18.0 / qcomp=0.60 / qpmin=0 / qpmax=69 / qpstep=4 / vbv_maxrate=50000 / vbv_bufsize=62500 / crf_max=0.0 / nal_hrd=none / filler=0 / ip_ratio=1.35 / pb_ratio=1.30 / aq=3:0.80
Language: English
Default: Yes
Forced: No
Color range: Limited
Matrix coefficients: BT.709

Audio #1
ID: 2
Format: AC-3
Format/Info: Audio Coding 3
Commercial name: Dolby Digital
Codec ID: A_AC3
Duration: 2 h 53 min
Bit rate mode: Constant
Bit rate: 384 kb/s
Channel (s): 6 channels
Channel layout: L R C LFE Ls Rs
Sampling rate: 48.0 kHz
Frame rate: 31.250 FPS (1536 SPF)
Compression mode: Lossy
Stream size: 476 MiB (15%)
Title: Дублированный | Велес
Language: Russian
Service kind: Complete Main
Default: Yes
Forced: No

Audio #2
ID: 3
Format: AC-3
Format/Info: Audio Coding 3
Commercial name: Dolby Digital
Codec ID: A_AC3
Duration: 2 h 53 min
Bit rate mode: Constant
Bit rate: 448 kb/s
Channel (s): 6 channels
Channel layout: L R C LFE Ls Rs
Sampling rate: 48.0 kHz
Frame rate: 31.250 FPS (1536 SPF)
Compression mode: Lossy
Stream size: 555 MiB (17%)
Title: MVO | TVShows
Language: Russian
Service kind: Complete Main
Default: No
Forced: No

Text #1
ID: 4
Format: UTF-8
Codec ID: S_TEXT/UTF8
Codec ID/Info: UTF-8 Plain Text
Duration: 2 h 50 min
Bit rate: 4 b/s
Frame rate: 0.012 FPS
Count of elements: 128
Stream size: 5.22 KiB (0%)
Title: Forced
Language: Russian
Default: No
Forced: No

Text #2
ID: 5
Format: UTF-8
Codec ID: S_TEXT/UTF8
Codec ID/Info: UTF-8 Plain Text
Duration: 2 h 45 min
Bit rate: 77 b/s
Frame rate: 0.228 FPS
Count of elements: 2263
Stream size: 94.2 KiB (0%)
Title: Full
Language: Russian
Default: No
Forced: No

Text #3
ID: 6
Format: UTF-8
Codec ID: S_TEXT/UTF8
Codec ID/Info: UTF-8 Plain Text
Duration: 2 h 51 min
Bit rate: 38 b/s
Frame rate: 0.192 FPS
Count of elements: 1975
Stream size: 47.9 KiB (0%)
Title: Full
Language: English (US)
Default: No
Forced: No

Text #4
ID: 7
Format: UTF-8
Codec ID: S_TEXT/UTF8
Codec ID/Info: UTF-8 Plain Text
Duration: 2 h 51 min
Bit rate: 38 b/s
Frame rate: 0.192 FPS
Count of elements: 1975
Stream size: 47.9 KiB (0%)
Title: SDH
Language: English (US)
Default: No
Forced: No

Menu
00:00:00.000: en: Chapter 01
00:14:53.125: en: Chapter 02
00:29:10.958: en: Chapter 03
00:42:03.500: en: Chapter 04
00:57:57.875: en: Chapter 05
01:12:37.833: en: Chapter 06
01:26:13.250: en: Chapter 07
01:41:58.875: en: Chapter 08
01:53:16.958: en: Chapter 09
02:10:10.583: en: Chapter 10
02:22:00.583: en: Chapter 11
02:36:02.791: en: Chapter 12
02:53:11.750: en: Chapter 13

Другие фильмы
У данной публикации пока нет комментариев.
Будь первым, оставь своё мнение в комментариях!
Информация
Посетители, находящиеся в группе Гости, не могут оставлять комментарии к данной публикации.
Самый популярный релиз недели
Донаты
Мы в соц. сетях / RSS

Лучшие релизы месяца
Лучшие SD недели
Лучшие 720p недели
Лучшие 1080p недели
Лучшие 4K недели
Вы недавно смотрели
Реклама
Последние комментарии
...

rmzshka

12 июля 2024 11:30

...

Rustik99

12 июля 2024 10:11

...

-=DoMiNo=-

11 июля 2024 23:42

...

rmzshka

11 июля 2024 11:28

...

-=DoMiNo=-

10 июля 2024 15:08

Реклама