+17

Блуждающая Земля 2 / Liu lang di qiu 2 / The Wandering Earth II (2023) BDRip 1080p от селезень | D, P

Информация о фильме
Название: Блуждающая Земля 2
Оригинальное название: Liu lang di qiu 2 / The Wandering Earth II
Год выхода: 2023
Жанр: Фантастика, боевик
Режиссер: Франт Гво
В ролях: Джеки У, Энди Лау, Ли Сюэцзянь, Ша И, Нин Ли, Ван Чжи, Чжу Яньманьцзы, Энди Френд, Тун Лия, Зина Блахусова

Описание:
Солнце угасает. Последний шанс человечества на спасение — поиск нового дома. Объединившись, люди находят возможность изменить орбиту Земли, отправившись в неизвестность. Но это путешествие на много сотен световых лет во тьму несет разрушение и хаос. Планета растерзана катаклизмами, в которых выживут далеко не все. И все же только в бесконечной пустоте можно обрести новую жизнь.

Страна: Китай
Студия: Beijing Dengfeng International Culture Communications Company, CFC Pictures, China Film Co., Ltd., G!Film Studio, Rollin Studios
Продолжительность: 02:53:11
Перевод #1: Дублированный | Велес
Перевод #2: Профессиональный (многоголосый, закадровый) | TVShows
Субтитры: Русские (Forced, Full), Английские

Файл
Формат: Matroska
Качество: BDRip 1080p
Видео: 1920x804 at 24.000 fps, [email protected], ~7337 kbps
Аудио 1: AC3, 6 ch, ~384 kbps - | Русский | Блуждающая Земля 2 / Liu lang di qiu 2 / The Wandering Earth II (2023) BDRip 1080p от селезень | D, P | Дублированный | Велес
Аудио 2: E-AC3, 6 ch, ~384 kbps - | Русский | | Дублированный | Велес
Аудио 3: AC3, 6 ch, ~640 kbps - | Русский | | MVO | TVShows
Аудио 4: AC3, 6 ch, ~640 kbps - | Английский |
Формат субтитров: softsub (SRT)

*** Получение шестиканальной звуковой дорожки, профессионального многоголосого закадрового озвучивания, достигнуто выделением голосов со стерео дорожки и последующего наложения их на центральный канал оригинальной китайской 5.1 звуковой дорожки.

Авторизуйтесь для получения доступа к скачиванию

Нет аккаунта? Регистрация открыта и займёт меньше минуты

Вход Регистрация

General
Unique ID: 88266101308554885991476881839508539299 (0×42676EC941EE07388D221ED608F9C7A3)
Complete name: H:\VideoH\The.Wandering.Earth.2.2023.BDRip.1080p.seleZen.mkv
Format: Matroska
Format version: Version 4
File size: 11.4 GiB
Duration: 2 h 53 min
Overall bit rate: 9 388 kb/s
Frame rate: 24.000 FPS
Movie name: Liu lang di qiu 2 a.k.a The Wandering Earth II (2023) from seleZen
Encoded date: 02.11.2023 15:39:43 UTC
Writing application: mkvmerge v79.0 ('Funeral Pyres') 64-bit
Writing library: libebml v1.4.4 + libmatroska v1.7.1

Video
ID: 1
Format: AVC
Format/Info: Advanced Video Codec
Format profile: [email protected]
Format settings: CABAC / 5 Ref Frames
Format settings, CABAC: Yes
Format settings, Reference: 5 frames
Codec ID: V_MPEG4/ISO/AVC
Duration: 2 h 53 min
Bit rate: 7 337 kb/s
Width: 1 920 pixels
Height: 804 pixels
Display aspect ratio: 2.40:1
Frame rate mode: Constant
Frame rate: 24.000 FPS
Color space: YUV
Chroma subsampling: 4:2:0
Bit depth: 8 bits
Scan type: Progressive
Bits/(Pixel*Frame): 0.198
Stream size: 8.88 GiB (78%)
Writing library: x264 core 164 r3156 seleZen
Encoding settings: cabac=1 / ref=5 / deblock=1:-2:-2 / analyse=0×3:0×133 / me=umh / subme=10 / psy=1 / psy_rd=1.00:0.00 / mixed_ref=1 / me_range=32 / chroma_me=1 / trellis=2 / 8×8dct=1 / cqm=0 / deadzone=21,11 / fast_pskip=0 / chroma_qp_offset=-2 / threads=25 / lookahead_threads=4 / sliced_threads=0 / nr=0 / decimate=0 / interlaced=0 / bluray_compat=0 / constrained_intra=0 / bframes=9 / b_pyramid=2 / b_adapt=2 / b_bias=0 / direct=1 / weightb=1 / open_gop=0 / weightp=2 / keyint=240 / keyint_min=23 / scenecut=40 / intra_refresh=0 / rc_lookahead=60 / rc=crf / mbtree=0 / crf=17.4 / qcomp=0.60 / qpmin=0 / qpmax=51 / qpstep=4 / vbv_maxrate=50000 / vbv_bufsize=62500 / crf_max=0.0 / nal_hrd=none / filler=0 / ip_ratio=1.40 / pb_ratio=1.30 / aq=3:0.80
Language: English
Default: Yes
Forced: No

Audio #1
ID: 2
Format: AC-3
Format/Info: Audio Coding 3
Commercial name: Dolby Digital
Codec ID: A_AC3
Duration: 2 h 53 min
Bit rate mode: Constant
Bit rate: 384 kb/s
Channel (s): 6 channels
Channel layout: L R C LFE Ls Rs
Sampling rate: 48.0 kHz
Frame rate: 31.250 FPS (1536 SPF)
Compression mode: Lossy
Stream size: 476 MiB (4%)
Title: Dub
Language: Russian
Service kind: Complete Main
Default: Yes
Forced: No

Audio #2
ID: 3
Format: E-AC-3
Format/Info: Enhanced AC-3
Commercial name: Dolby Digital Plus
Codec ID: A_EAC3
Duration: 2 h 53 min
Bit rate mode: Constant
Bit rate: 384 kb/s
Channel (s): 6 channels
Channel layout: L R C LFE Ls Rs
Sampling rate: 48.0 kHz
Frame rate: 31.250 FPS (1536 SPF)
Compression mode: Lossy
Stream size: 476 MiB (4%)
Title: Dub
Language: Russian
Service kind: Complete Main
Default: No
Forced: No

Audio #3
ID: 4
Format: AC-3
Format/Info: Audio Coding 3
Commercial name: Dolby Digital
Codec ID: A_AC3
Duration: 2 h 53 min
Bit rate mode: Constant
Bit rate: 640 kb/s
Channel (s): 6 channels
Channel layout: L R C LFE Ls Rs
Sampling rate: 48.0 kHz
Frame rate: 31.250 FPS (1536 SPF)
Compression mode: Lossy
Stream size: 793 MiB (7%)
Title: MVO
Language: Russian
Service kind: Complete Main
Default: No
Forced: No

Audio #4
ID: 5
Format: AC-3
Format/Info: Audio Coding 3
Commercial name: Dolby Digital
Codec ID: A_AC3
Duration: 2 h 53 min
Bit rate mode: Constant
Bit rate: 640 kb/s
Channel (s): 6 channels
Channel layout: L R C LFE Ls Rs
Sampling rate: 48.0 kHz
Frame rate: 31.250 FPS (1536 SPF)
Bit depth: 32 bits
Compression mode: Lossy
Stream size: 793 MiB (7%)
Title: Original
Language: English
Service kind: Complete Main
Default: No
Forced: No

Text #1
ID: 6
Format: UTF-8
Codec ID: S_TEXT/UTF8
Codec ID/Info: UTF-8 Plain Text
Duration: 2 h 50 min
Bit rate: 4 b/s
Frame rate: 0.012 FPS
Count of elements: 128
Stream size: 5.22 KiB (0%)
Title: Forced
Language: Russian
Default: Yes
Forced: No

Text #2
ID: 7
Format: UTF-8
Codec ID: S_TEXT/UTF8
Codec ID/Info: UTF-8 Plain Text
Duration: 2 h 45 min
Bit rate: 77 b/s
Frame rate: 0.228 FPS
Count of elements: 2263
Stream size: 94.2 KiB (0%)
Title: Full
Language: Russian
Default: No
Forced: No

Text #3
ID: 8
Format: UTF-8
Codec ID: S_TEXT/UTF8
Codec ID/Info: UTF-8 Plain Text
Duration: 2 h 51 min
Bit rate: 38 b/s
Frame rate: 0.192 FPS
Count of elements: 1975
Stream size: 47.9 KiB (0%)
Title: Full
Language: English (US)
Default: No
Forced: No

Text #4
ID: 9
Format: UTF-8
Codec ID: S_TEXT/UTF8
Codec ID/Info: UTF-8 Plain Text
Duration: 2 h 51 min
Bit rate: 38 b/s
Frame rate: 0.192 FPS
Count of elements: 1975
Stream size: 47.9 KiB (0%)
Title: SDH
Language: English (US)
Default: No
Forced: No

Menu
00:00:00.000: en: Глава 01
00:14:53.125: en: Глава 02
00:29:10.958: en: Глава 03
00:42:03.500: en: Глава 04
00:57:57.875: en: Глава 05
01:12:37.833: en: Глава 06
01:26:13.250: en: Глава 07
01:41:58.875: en: Глава 08
01:53:16.958: en: Глава 09
02:10:10.583: en: Глава 10
02:22:00.583: en: Глава 11
02:36:02.792: en: Глава 12

Другие фильмы
У данной публикации пока нет комментариев.
Будь первым, оставь своё мнение в комментариях!
Информация
Посетители, находящиеся в группе Гости, не могут оставлять комментарии к данной публикации.
Самый популярный релиз недели
Донаты
Мы в соц. сетях / RSS

Лучшие релизы месяца
Лучшие SD недели
Лучшие 720p недели
Лучшие 1080p недели
Лучшие 4K недели
Вы недавно смотрели
Реклама
Последние комментарии
...

Bonzo

14 июня 2024 14:52

...

rmzshka

13 июня 2024 17:48

...

rmzshka

13 июня 2024 12:24

...

LisNick

13 июня 2024 08:45

...

SkySpirit

8 июня 2024 19:54

Реклама