+4

Заклятье. Первое пробуждение / La Niña de la Comunión / The Communion Girl (2022) BDRip-AVC от DoMiNo & селезень | D

Информация о фильме
Название: Заклятье. Первое пробуждение
Оригинальное название: La Niña de la Comunión / The Communion Girl
Год выхода: 2022
Жанр: ужасы
Режиссер: Виктор Гарсия
В ролях: Карла Кампра, Айна Квиньонес, Марк Солер, Карлос Овьедо, Олимпия Рош, Мария Молинс, Ксави Лите, Анна Аларкон, Виктор Соле, Сара Рош

О фильме:
Новенькая Сара пытается вписаться в компанию подростков. Однажды вечером она идет с ними в ночной клуб, а по дороге домой друзья встречают маленькую девочку с куклой в руках, одетую в старомодное платье для первого причастия. Сара еще не знает леденящую городскую легенду о девочке-призраке, готовой отомстить любому, кому не посчастливится пересечь ее путь.

Страна: Испания
Студия: Atresmedia Cine, Ikiru Films, La Terraza Films
Продолжительность: 01:38:48
Перевод: Дублированный | Велес
Субтитры: Русские (Full), испанские

Файл
Формат: Matroska
Качество: BDRip-AVC
Видео: 1024x428 at 24.000 fps, [email protected], ~1986 kbps
Аудио: AC3, 6 ch, ~448 kbps - | Русский | Заклятье. Первое пробуждение / La Niña de la Comunión / The Communion Girl (2022) BDRip-AVC от DoMiNo & селезень | D
Формат субтитров: softsub (SRT)

Заклятье. Первое пробуждение / La Niña de la Comunión / The Communion Girl (2022) BDRip-AVC от DoMiNo & селезень | D

Авторизуйтесь для получения доступа к скачиванию

Нет аккаунта? Регистрация открыта и займёт меньше минуты

Вход Регистрация

x264 [info]: frame I:1326 Avg QP:14.81 size: 44957
x264 [info]: frame P:29628 Avg QP:16.26 size: 20485
x264 [info]: frame B:111324 Avg QP:18.92 size: 7231
x264 [info]: consecutive B-frames: 3.2% 2.7% 7.2% 13.4% 15.5% 29.9% 7.7% 11.0% 4.2% 1.1% 0.9% 0.4% 0.8% 1.1% 0.9%

General
Unique ID : 133135779880957870219247604624857431000 (0x642904BD58DFC9FD78EE085210AAFBD8)
Complete name : D:The.Communion.Girl.2022.D.BDRip.x264.seleZen.mkv
Format : Matroska
Format version : Version 4
File size : 1.68 GiB
Duration : 1 h 38 min
Overall bit rate : 2 436 kb/s
Frame rate : 24.000 FPS
Movie name : The.Communion.Girl.2022.D.BDRip.x264.seleZen
Encoded date : 2023-05-26 17:20:30 UTC
Writing application : mkvmerge v76.0 ('Celebration') 64-bit
Writing library : libebml v1.4.4 + libmatroska v1.7.1
Cover : Yes
Attachments : cover.jpg / small_cover.jpg

Video
ID : 1
Format : AVC
Format/Info : Advanced Video Codec
Format profile : [email protected]
Format settings : CABAC / 12 Ref Frames
Format settings, CABAC : Yes
Format settings, Reference : 12 frames
Codec ID : V_MPEG4/ISO/AVC
Duration : 1 h 38 min
Bit rate : 1 986 kb/s
Width : 1 024 pixels
Height : 428 pixels
Display aspect ratio : 2.40:1
Frame rate mode : Constant
Frame rate : 24.000 FPS
Color space : YUV
Chroma subsampling : 4:2:0
Bit depth : 8 bits
Scan type : Progressive
Bits/(Pixel*Frame) : 0.189
Stream size : 1.37 GiB (82%)
Title : -=DoMiNo=-
Writing library : x264 core 164 r3107+58M ae98796 t_mod_New | by -=DoMiNo=- | X86_64]
Encoding settings : cabac=1 / ref=12 / deblock=1:-2:-2 / analyse=0x3:0x133 / me=umh / subme=10 / psy=1 / fade_compensate=0.00 / psy_rd=1.03:0.02 / mixed_ref=1 / me_range=32 / chroma_me=1 / trellis=2 / 8x8dct=1 / cqm=0 / deadzone=21,11 / fast_pskip=0 / chroma_qp_offset=-3 / threads=17 / lookahead_threads=3 / sliced_threads=0 / nr=0 / decimate=1 / interlaced=0 / bluray_compat=0 / constrained_intra=0 / fgo=0 / bframes=14 / b_pyramid=2 / b_adapt=2 / b_bias=0 / direct=3 / weightb=1 / open_gop=0 / weightp=2 / keyint=240 / keyint_min=24 / scenecut=40 / intra_refresh=0 / rc_lookahead=60 / rc=crf / mbtree=0 / crf=18.5000 / qcomp=0.60 / qpmin=0:0:0 / qpmax=69:69:69 / qpstep=4 / vbv_maxrate=50000 / vbv_bufsize=62500 / crf_max=0.0 / nal_hrd=none / filler=0 / ip_ratio=1.35 / pb_ratio=1.25 / aq=3:0.90 / aq-sensitivity=10.00 / aq-factor=1.00:1.00:1.00:1.00 / aq2=0 / aq3=0
Language : English
Default : Yes
Forced : No
Color range : Limited
Color primaries : BT.709
Transfer characteristics : BT.709
Matrix coefficients : BT.709

Audio
ID : 2
Format : AC-3
Format/Info : Audio Coding 3
Commercial name : Dolby Digital
Codec ID : A_AC3
Duration : 1 h 38 min
Bit rate mode : Constant
Bit rate : 448 kb/s
Channel(s) : 6 channels
Channel layout : L R C LFE Ls Rs
Sampling rate : 48.0 kHz
Frame rate : 31.250 FPS (1536 SPF)
Compression mode : Lossy
Stream size : 317 MiB (18%)
Title : Dub
Language : Russian
Service kind : Complete Main
Default : Yes
Forced : Yes

Text #1
ID : 3
Format : UTF-8
Codec ID : S_TEXT/UTF8
Codec ID/Info : UTF-8 Plain Text
Duration : 1 h 33 min
Bit rate : 76 b/s
Frame rate : 0.198 FPS
Count of elements : 1114
Stream size : 52.8 KiB (0%)
Title : Full
Language : Russian
Default : No
Forced : No

Text #2
ID : 4
Format : UTF-8
Codec ID : S_TEXT/UTF8
Codec ID/Info : UTF-8 Plain Text
Duration : 1 h 33 min
Bit rate : 56 b/s
Frame rate : 0.249 FPS
Count of elements : 1399
Stream size : 38.7 KiB (0%)
Title : SDH
Language : Spanish
Default : No
Forced : No

Menu
00:00:00.000 : en:Глава 01
00:07:58.417 : en:Глава 02
00:15:10.167 : en:Глава 03
00:21:04.417 : en:Глава 04
00:27:58.458 : en:Глава 05
00:36:15.708 : en:Глава 06
00:41:37.875 : en:Глава 07
00:48:01.792 : en:Глава 08
00:55:44.042 : en:Глава 09
01:02:50.875 : en:Глава 10
01:09:45.333 : en:Глава 11
01:20:19.958 : en:Глава 12
01:33:58.833 : en:Глава 13

Другие фильмы
У данной публикации пока нет комментариев.
Будь первым, оставь своё мнение в комментариях!
Информация
Посетители, находящиеся в группе Гости, не могут оставлять комментарии к данной публикации.
Самый популярный релиз недели
Донаты
Мы в соц. сетях / RSS

Лучшие релизы месяца
Лучшие SD недели
Лучшие 720p недели
Лучшие 1080p недели
Лучшие 4K недели
Вы недавно смотрели
Реклама
Последние комментарии
...

rmzshka

15 мая 2024 13:43

...

Andrey_Vladimirovich

13 мая 2024 18:12

...

Robot

13 мая 2024 16:53

...

rmzshka

13 мая 2024 16:21

...

supermehanik

13 мая 2024 02:03

Реклама