+16

Город грешников / Bad City (2022) HDRip-AVC от DoMiNo & селезень | P

Информация о фильме
Название: Город грешников
Оригинальное название: Bad City
Год выхода: 2022
Жанр: Боевик, криминал, детектив
Режиссер: Кэнсукэ Сономура
В ролях: Хитоси Одзава, Аканэ Саканоуэ, Масанори Мимото, Кацуя, Мицу Дан, Ёсиюки Ямагути, Рино Катасэ, Рири Фрэнки, Масая Като, Так Сакагути

Описание:
В поглощенном преступностью городе живут не по закону, а по понятиям. Когда, в очередной раз выкрутившись в суде, коррумпированный бизнесмен Ватару Годзё решает баллотироваться в мэры, прокурор по УДО выпускает из тюрьмы мотающего срок за убийство бывшего полицейского Макото Тораду. Его задача — возглавить секретную опергруппу из сотрудников убойного отдела и любым способом добиться ареста обнаглевшего Годзё.

Страна: Япония
Студия: Solid Features, Bad City Film Partners
Продолжительность: 01:58:13
Перевод: Профессиональный (многоголосый, закадровый) | Кипарис
Субтитры: Русские (Full), Английские (Full, SDH)

Файл
Формат: Matroska
Качество: HDRip-AVC
Видео: 1024×436 at 23.976 fps, [email protected], ~1731 kbps
Аудио 1: AC3, 6 ch, ~448 kbps — | Русский | Город грешников / Bad City (2022) HDRip-AVC от DoMiNo & селезень | P
Аудио 2: AC3, 6 ch, ~448 kbps — | Японский |
Формат субтитров: softsub (SRT)

Авторизуйтесь для получения доступа к скачиванию

Нет аккаунта? Регистрация открыта и займёт меньше минуты

Вход Регистрация

x264 [info]: frame I: 1204 Avg QP: 14.86 size: 52642
x264 [info]: frame P: 40127 Avg QP: 16.06 size: 17716
x264 [info]: frame B: 128733 Avg QP: 17.89 size: 5907

General
Unique ID: 201693060506910137924376317973357676237 (0×97BCABA49CC8CD6A8DA76826232446CD)
Complete name: O: Bad.City.2022.MVO.x264.seleZen.mkv
Format: Matroska
Format version: Version 4
File size: 2.17 GiB
Duration: 1 h 58 min
Overall bit rate: 2 629 kb/s
Frame rate: 23.976 FPS
Movie name: Bad.City.2022.MVO.x264.seleZen
Encoded date: 12.09.2023 13:23:35 UTC
Writing application: mkvmerge v79.0 ('Funeral Pyres') 64-bit
Writing library: libebml v1.4.4 + libmatroska v1.7.1
Cover: Yes
Attachments: cover.jpg / small_cover.jpg

Video
ID: 1
Format: AVC
Format/Info: Advanced Video Codec
Format profile: [email protected]
Format settings: CABAC / 12 Ref Frames
Format settings, CABAC: Yes
Format settings, Reference: 12 frames
Codec ID: V_MPEG4/ISO/AVC
Duration: 1 h 58 min
Bit rate: 1 731 kb/s
Width: 1 024 pixels
Height: 436 pixels
Display aspect ratio: 2.35:1
Frame rate mode: Constant
Frame rate: 23.976 (24000/1001) FPS
Color space: YUV
Chroma subsampling: 4:2:0
Bit depth: 8 bits
Scan type: Progressive
Bits/(Pixel*Frame): 0.162
Stream size: 1.43 GiB (66%)
Title: -=DoMiNo=-
Writing library: x264 core 164 r3107+58M ae98796 t_mod_New | by -=DoMiNo=- | X86_64]
Encoding settings: cabac=1 / ref=12 / deblock=1:-2:-2 / analyse=0×3:0×133 / me=umh / subme=10 / psy=1 / fade_compensate=0.00 / psy_rd=1.02:0.03 / mixed_ref=1 / me_range=40 / chroma_me=1 / trellis=2 / 8×8dct=1 / cqm=0 / deadzone=21,11 / fast_pskip=0 / chroma_qp_offset=-3 / threads=17 / lookahead_threads=3 / sliced_threads=0 / nr=0 / decimate=1 / interlaced=0 / bluray_compat=0 / constrained_intra=0 / fgo=0 / bframes=10 / b_pyramid=2 / b_adapt=2 / b_bias=0 / direct=3 / weightb=1 / open_gop=0 / weightp=2 / keyint=240 / keyint_min=24 / scenecut=40 / intra_refresh=0 / rc_lookahead=60 / rc=crf / mbtree=0 / crf=18.5000 / qcomp=0.70 / qpmin=0:0:0 / qpmax=69:69:69 / qpstep=4 / vbv_maxrate=50000 / vbv_bufsize=62500 / crf_max=0.0 / nal_hrd=none / filler=0 / ip_ratio=1.30 / pb_ratio=1.25 / aq=3:0.80 / aq-sensitivity=10.00 / aq-factor=1.00:1.00:1.00:1.00 / aq2=0 / aq3=0
Language: Japanese
Default: Yes
Forced: No

Audio #1
ID: 2
Format: AC-3
Format/Info: Audio Coding 3
Commercial name: Dolby Digital
Codec ID: A_AC3
Duration: 1 h 58 min
Bit rate mode: Constant
Bit rate: 448 kb/s
Channel (s): 6 channels
Channel layout: L R C LFE Ls Rs
Sampling rate: 48.0 kHz
Frame rate: 31.250 FPS (1536 SPF)
Compression mode: Lossy
Stream size: 379 MiB (17%)
Title: MVO [Kiparis]
Language: Russian
Service kind: Complete Main
Default: Yes
Forced: No

Audio #2
ID: 3
Format: AC-3
Format/Info: Audio Coding 3
Commercial name: Dolby Digital
Codec ID: A_AC3
Duration: 1 h 58 min
Bit rate mode: Constant
Bit rate: 448 kb/s
Channel (s): 6 channels
Channel layout: L R C LFE Ls Rs
Sampling rate: 48.0 kHz
Frame rate: 31.250 FPS (1536 SPF)
Compression mode: Lossy
Stream size: 379 MiB (17%)
Title: Original
Language: Japanese
Service kind: Complete Main
Default: No
Forced: No

Text #1
ID: 4
Format: UTF-8
Codec ID: S_TEXT/UTF8
Codec ID/Info: UTF-8 Plain Text
Duration: 1 h 53 min
Bit rate: 55 b/s
Frame rate: 0.159 FPS
Count of elements: 1081
Stream size: 46.5 KiB (0%)
Title: Full
Language: Russian
Default: No
Forced: No

Text #2
ID: 5
Format: UTF-8
Codec ID: S_TEXT/UTF8
Codec ID/Info: UTF-8 Plain Text
Duration: 1 h 51 min
Bit rate: 33 b/s
Frame rate: 0.157 FPS
Count of elements: 1049
Stream size: 27.7 KiB (0%)
Title: Full
Language: English (US)
Default: No
Forced: No

Text #3
ID: 6
Format: UTF-8
Codec ID: S_TEXT/UTF8
Codec ID/Info: UTF-8 Plain Text
Duration: 1 h 51 min
Bit rate: 33 b/s
Frame rate: 0.157 FPS
Count of elements: 1049
Stream size: 27.7 KiB (0%)
Title: SDH
Language: English (US)
Default: No
Forced: No

Menu
00:00:00.000: en: Chapter 01
00:12:32.752: en: Chapter 02
00:24:04.693: en: Chapter 03
00:35:05.895: en: Chapter 04
00:44:12.024: en: Chapter 05
00:56:40.731: en: Chapter 06
01:06:01.082: en: Chapter 07
01:21:18.123: en: Chapter 08
01:33:06.206: en: Chapter 09
01:40:55.591: en: Chapter 10
01:49:03.996: en: Chapter 11

Другие фильмы
У данной публикации пока нет комментариев.
Будь первым, оставь своё мнение в комментариях!
Информация
Посетители, находящиеся в группе Гости, не могут оставлять комментарии к данной публикации.
Самый популярный релиз недели
Донаты
Мы в соц. сетях / RSS

Лучшие релизы месяца
Лучшие SD недели
Лучшие 720p недели
Лучшие 1080p недели
Лучшие 4K недели
Вы недавно смотрели
Реклама
Последние комментарии
...

Bonzo

14 июня 2024 14:52

...

rmzshka

13 июня 2024 17:48

...

rmzshka

13 июня 2024 12:24

...

LisNick

13 июня 2024 08:45

...

SkySpirit

8 июня 2024 19:54

Реклама