+13

Подземелья и драконы: Честь среди воров / Dungeons & Dragons: Honor Among Thieves (2023) WEB-DL 720p от селезень | P, A

Информация о фильме
Название: Подземелья и драконы: Честь среди воров
Оригинальное название: Dungeons & Dragons: Honor Among Thieves
Год выхода: 2023
Жанр: Фэнтези, боевик, комедия
Режиссер: Джон Фрэнсис Дейли, Джонатан М. Голдштейн
В ролях: Крис Пайн, Мишель Родригес, Реге-Жан Пейдж, Джастис Смит, София Лиллис, Хью Грант, Хлоя Коулмэн, Дэйзи Хэд, Кайл Хиксон, Спенсер Уайлдинг

О фильме:
Эдгин Дарвис вместе с верной воительницей Хольгой объединяются с рассеянным магом Саймоном, ловкой друидкой Дорик и чопорным паладином Зенком, чтобы вернуть утерянную реликвию, наделенную огромной силой. Однако всё быстро идет наперекосяк, когда на их пути встает злодей Фордж.

Страна: США, Канада
Студия: Paramount Pictures, Entertainment One, Allspark Pictures
Продолжительность: 02:15:58
Перевод 1: Профессиональный (многоголосый, закадровый) | Jaskier
Перевод 2: Профессиональный (многоголосый, закадровый) | TVShows
Перевод 3: Профессиональный (многоголосый, закадровый) | NewComers
Перевод 4: Авторский (одноголосый, закадровый) | Ю. Сербин
Субтитры: Русские (Full (Director's Card и RebelProject)), английские

Файл
Формат: Matroska
Качество: WEB-DL 720p | AMZN
Видео: 1248x520 at 23.976 fps, [email protected], ~3160 kbps
Аудио 1: AC3, 6 ch, ~640 kbps - | Русский | Подземелья и драконы: Честь среди воров / Dungeons & Dragons: Honor Among Thieves (2023) WEB-DL 720p от селезень | P, A | Jaskier
Аудио 2: AC3, 6 ch, ~384 kbps - | Русский | | TVShows
Аудио 3: AC3, 6 ch, ~640 kbps - | Русский | | NewComers
Аудио 4: AC3, 6 ch, ~384 kbps - | Русский | | Ю. Сербин
Аудио 5: E-AC3, 6 ch, ~640 kbps - | Английский |
Формат субтитров: softsub (SRT)

Подземелья и драконы: Честь среди воров / Dungeons & Dragons: Honor Among Thieves (2023) WEB-DL 720p от селезень | P, A

Авторизуйтесь для получения доступа к скачиванию

Нет аккаунта? Регистрация открыта и займёт меньше минуты

Вход Регистрация

General
Unique ID : 82311261980329274431851978686526733635 (0x3DEC928A2BC581CBB847CEFE583D3D43)
Complete name : H:Dungeons.and.Dragons.Honor.Among.Thieves.2023.WEB-DL.720p.x264.seleZen.mkv
Format : Matroska
Format version : Version 4
File size : 5.54 GiB
Duration : 2 h 15 min
Overall bit rate : 5 837 kb/s
Frame rate : 23.976 FPS
Movie name : Dungeons.and.Dragons.Honor.Among.Thieves.2023.WEB-DL.720p.x264.seleZen
Encoded date : 2023-05-16 10:10:37 UTC
Writing application : mkvmerge v76.0 ('Celebration') 64-bit
Writing library : libebml v1.4.4 + libmatroska v1.7.1
Cover : Yes
Attachments : cover.jpg / small_cover.jpg

Video
ID : 1
Format : AVC
Format/Info : Advanced Video Codec
Format profile : [email protected]
Format settings : CABAC / 4 Ref Frames
Format settings, CABAC : Yes
Format settings, Reference : 4 frames
Codec ID : V_MPEG4/ISO/AVC
Duration : 2 h 15 min
Bit rate mode : Constant
Bit rate : 3 160 kb/s
Nominal bit rate : 4 000 kb/s
Width : 1 248 pixels
Height : 520 pixels
Display aspect ratio : 2.40:1
Frame rate mode : Constant
Frame rate : 23.976 (24000/1001) FPS
Color space : YUV
Chroma subsampling : 4:2:0
Bit depth : 8 bits
Scan type : Progressive
Bits/(Pixel*Frame) : 0.203
Stream size : 3.00 GiB (54%)
Title : -=DoMiNo=-
Language : English
Default : Yes
Forced : No
Color range : Limited
Color primaries : BT.709
Transfer characteristics : BT.709
Matrix coefficients : BT.709

Audio #1
ID : 2
Format : AC-3
Format/Info : Audio Coding 3
Commercial name : Dolby Digital
Codec ID : A_AC3
Duration : 2 h 14 min
Bit rate mode : Constant
Bit rate : 640 kb/s
Channel(s) : 6 channels
Channel layout : L R C LFE Ls Rs
Sampling rate : 48.0 kHz
Frame rate : 31.250 FPS (1536 SPF)
Compression mode : Lossy
Stream size : 614 MiB (11%)
Title : Jaskier
Language : Russian
Service kind : Complete Main
Default : Yes
Forced : Yes

Audio #2
ID : 3
Format : AC-3
Format/Info : Audio Coding 3
Commercial name : Dolby Digital
Codec ID : A_AC3
Duration : 2 h 14 min
Bit rate mode : Constant
Bit rate : 384 kb/s
Channel(s) : 6 channels
Channel layout : L R C LFE Ls Rs
Sampling rate : 48.0 kHz
Frame rate : 31.250 FPS (1536 SPF)
Compression mode : Lossy
Stream size : 368 MiB (6%)
Title : TVShows
Language : Russian
Service kind : Complete Main
Default : No
Forced : No

Audio #3
ID : 4
Format : AC-3
Format/Info : Audio Coding 3
Commercial name : Dolby Digital
Codec ID : A_AC3
Duration : 2 h 15 min
Bit rate mode : Constant
Bit rate : 640 kb/s
Channel(s) : 6 channels
Channel layout : L R C LFE Ls Rs
Sampling rate : 48.0 kHz
Frame rate : 31.250 FPS (1536 SPF)
Compression mode : Lossy
Stream size : 622 MiB (11%)
Title : NewComers
Language : Russian
Service kind : Complete Main
Default : No
Forced : No

Audio #4
ID : 5
Format : AC-3
Format/Info : Audio Coding 3
Commercial name : Dolby Digital
Codec ID : A_AC3
Duration : 2 h 15 min
Bit rate mode : Constant
Bit rate : 384 kb/s
Channel(s) : 6 channels
Channel layout : L R C LFE Ls Rs
Sampling rate : 48.0 kHz
Frame rate : 31.250 FPS (1536 SPF)
Compression mode : Lossy
Stream size : 373 MiB (7%)
Title : Сербин
Language : Russian
Service kind : Complete Main
Default : No
Forced : No

Audio #5
ID : 6
Format : E-AC-3
Format/Info : Enhanced AC-3
Commercial name : Dolby Digital Plus
Codec ID : A_EAC3
Duration : 2 h 15 min
Bit rate mode : Constant
Bit rate : 640 kb/s
Channel(s) : 6 channels
Channel layout : L R C LFE Ls Rs
Sampling rate : 48.0 kHz
Frame rate : 31.250 FPS (1536 SPF)
Compression mode : Lossy
Stream size : 622 MiB (11%)
Title : Original
Language : English (US)
Service kind : Complete Main
Default : No
Forced : No

Text #1
ID : 7
Format : UTF-8
Codec ID : S_TEXT/UTF8
Codec ID/Info : UTF-8 Plain Text
Duration : 2 h 6 min
Bit rate : 94 b/s
Frame rate : 0.216 FPS
Count of elements : 1641
Stream size : 87.8 KiB (0%)
Title : Full_[Director's Card и RebelProject]
Language : Russian
Default : No
Forced : No

Text #2
ID : 8
Format : UTF-8
Codec ID : S_TEXT/UTF8
Codec ID/Info : UTF-8 Plain Text
Duration : 35 min 25 s
Bit rate : 1 b/s
Frame rate : 0.006 FPS
Count of elements : 13
Stream size : 484 Bytes (0%)
Title : Forced
Language : English (US)
Default : No
Forced : No

Text #3
ID : 9
Format : UTF-8
Codec ID : S_TEXT/UTF8
Codec ID/Info : UTF-8 Plain Text
Duration : 2 h 6 min
Bit rate : 60 b/s
Frame rate : 0.217 FPS
Count of elements : 1653
Stream size : 56.4 KiB (0%)
Title : Full
Language : English (US)
Default : No
Forced : No

Text #4
ID : 10
Format : UTF-8
Codec ID : S_TEXT/UTF8
Codec ID/Info : UTF-8 Plain Text
Duration : 2 h 7 min
Bit rate : 66 b/s
Frame rate : 0.252 FPS
Count of elements : 1931
Stream size : 62.6 KiB (0%)
Title : SDH
Language : English (US)
Default : No
Forced : No

Menu
00:00:00.000 : en:Chapter 01
00:07:55.475 : en:Chapter 02
00:14:48.388 : en:Chapter 03
00:26:48.566 : en:Chapter 04
00:33:54.200 : en:Chapter 05
00:42:14.284 : en:Chapter 06
00:49:19.668 : en:Chapter 07
00:57:33.411 : en:Chapter 08
01:05:10.201 : en:Chapter 09
01:17:03.248 : en:Chapter 10
01:26:40.116 : en:Chapter 11
01:32:11.114 : en:Chapter 12
01:40:15.348 : en:Chapter 13
01:47:44.547 : en:Chapter 14
01:53:28.475 : en:Chapter 15
02:05:41.166 : en:Chapter 16

Другие фильмы
У данной публикации пока нет комментариев.
Будь первым, оставь своё мнение в комментариях!
Информация
Посетители, находящиеся в группе Гости, не могут оставлять комментарии к данной публикации.
Самый популярный релиз недели
Донаты
Мы в соц. сетях / RSS

Лучшие релизы месяца
Лучшие SD недели
Лучшие 720p недели
Лучшие 1080p недели
Лучшие 4K недели
Вы недавно смотрели
Реклама
Последние комментарии
...

Bonzo

14 июня 2024 14:52

...

rmzshka

13 июня 2024 17:48

...

rmzshka

13 июня 2024 12:24

...

LisNick

13 июня 2024 08:45

...

SkySpirit

8 июня 2024 19:54

Реклама