+7

Человек-муравей и Оса: Квантомания / Ant-Man and the Wasp: Quantumania (2023) BDRip 1080p от селезень | D

Информация о фильме
Название: Человек-муравей и Оса: Квантомания
Оригинальное название: Ant-Man and the Wasp: Quantumania
Год выхода: 2023
Жанр: фантастика, боевик, комедия, приключения
Режиссер: Пейтон Рид
В ролях: Пол Радд, Эванджелин Лилли, Майкл Дуглас, Мишель Пфайффер, Джонатан Мэйджерс, Кэтрин Ньютон, Билл Мюррей, Кэти О'Брайн, Уильям Джексон Харпер, Джэми Эндрю Катлер

О фильме: О приключениях бывшего мелкого преступника Скотта Лэнга, ставшего обладателем костюма, позволяющего уменьшаться и увеличиваться в размерах. Вместе с напарницей Хоуп ван Дайн, дочерью известного физика и энтомолога Хэнка Пима, разработавшего костюм человека-муравья, Скотт вновь спасает мир от угрозы.

Страна: США
Студия: Marvel Studios Inc., Truenorth Productions, Walt Disney Pictures
Продолжительность: 02:04:29
Перевод(ы):
#1: Дублированный (официальный) | MovieDalen
#2: Дублированный (неофициальный) | Red Head Sound


Качество: BDRip 1080p
Видео: MPEG-4 AVC, 1920x804, 8796 Kbit/s, 23.976 fps
Аудио #01: 48 kHz, AC3, 2.0, 192 Kbps | Дублированный | MovieDalen | RUS |Человек-муравей и Оса: Квантомания / Ant-Man and the Wasp: Quantumania (2023) BDRip 1080p от селезень | D
Аудио #02: 48 kHz, AC3, 5.1, 384 Kbps | Дублированный | Red Head Sound | RUS |
Аудио #03: 48 kHz, AC3, 5.1, 640 Kbps | Оригинал | ENG |
Субтитры: Русские (Forced, full), английские

Человек-муравей и Оса: Квантомания / Ant-Man and the Wasp: Quantumania (2023) BDRip 1080p от селезень | D

Авторизуйтесь для получения доступа к скачиванию

Нет аккаунта? Регистрация открыта и займёт меньше минуты

Вход Регистрация

General
Unique ID : 189070260362974755755092008594425465145 (0x8E3D9B8BD84DE317CCE72F6A1ECF4939)
Complete name : D:\Video\Ant.Man.and.the.Wasp.Quantumania.2023.BDRip.1080p.seleZen.mkv
Format : Matroska
Format version : Version 4
File size : 8.71 GiB
Duration : 2 h 4 min
Overall bit rate : 10.0 Mb/s
Frame rate : 23.976 FPS
Movie name : Ant-Man and the Wasp: Quantumania 2023 from seleZen
Encoded date : 2023-05-09 00:44:48 UTC
Writing application : mkvmerge v59.0.0 ('Shining Star') 64-bit
Writing library : libebml v1.4.2 + libmatroska v1.6.4

Video
ID : 1
Format : AVC
Format/Info : Advanced Video Codec
Format profile : [email protected]
Format settings : CABAC / 5 Ref Frames
Format settings, CABAC : Yes
Format settings, Reference : 5 frames
Codec ID : V_MPEG4/ISO/AVC
Duration : 2 h 4 min
Bit rate : 8 796 kb/s
Width : 1 920 pixels
Height : 804 pixels
Display aspect ratio : 2.40:1
Frame rate mode : Constant
Frame rate : 23.976 (24000/1001) FPS
Color space : YUV
Chroma subsampling : 4:2:0
Bit depth : 8 bits
Scan type : Progressive
Bits/(Pixel*Frame) : 0.238
Stream size : 7.65 GiB (88%)
Title : MTeam
Writing library : x264 core 157 r2938 2b00a84 TnP@MTeam Mod
Encoding settings : cabac=1 / ref=5 / deblock=1:-3:-3 / analyse=0x3:0x133 / me=umh / subme=10 / psy=1 / psy_rd=1.05:0.00 / mixed_ref=1 / me_range=32 / chroma_me=1 / trellis=2 / 8x8dct=1 / cqm=0 / deadzone=21,11 / fast_pskip=0 / chroma_qp_offset=-2 / threads=12 / lookahead_threads=2 / sliced_threads=0 / nr=0 / decimate=0 / interlaced=0 / bluray_compat=0 / constrained_intra=0 / bframes=8 / b_pyramid=2 / b_adapt=2 / b_bias=0 / direct=3 / weightb=1 / open_gop=0 / weightp=2 / keyint=250 / keyint_min=24 / scenecut=40 / intra_refresh=0 / rc_lookahead=250 / rc=crf / mbtree=0 / crf=16.8 / qcomp=0.60 / qpmin=0 / qpmax=69 / qpstep=4 / vbv_maxrate=62500 / vbv_bufsize=78125 / crf_max=0.0 / nal_hrd=none / filler=0 / ip_ratio=1.30 / pb_ratio=1.20 / aq=3:0.80
Language : English
Default : Yes
Forced : No
Color range : Limited
Color primaries : BT.709
Matrix coefficients : BT.709

Audio #1
ID : 2
Format : AC-3
Format/Info : Audio Coding 3
Commercial name : Dolby Digital
Codec ID : A_AC3
Duration : 2 h 4 min
Bit rate mode : Constant
Bit rate : 192 kb/s
Channel(s) : 2 channels
Channel layout : L R
Sampling rate : 48.0 kHz
Frame rate : 31.250 FPS (1536 SPF)
Compression mode : Lossy
Stream size : 171 MiB (2%)
Title : Dub [MovieDalen]
Language : Russian
Service kind : Complete Main
Default : Yes
Forced : Yes

Audio #2
ID : 3
Format : AC-3
Format/Info : Audio Coding 3
Commercial name : Dolby Digital
Codec ID : A_AC3
Duration : 2 h 4 min
Bit rate mode : Constant
Bit rate : 384 kb/s
Channel(s) : 6 channels
Channel layout : L R C LFE Ls Rs
Sampling rate : 48.0 kHz
Frame rate : 31.250 FPS (1536 SPF)
Compression mode : Lossy
Stream size : 342 MiB (4%)
Title : Dub [Red Head Sound]
Language : Russian
Service kind : Complete Main
Default : No
Forced : No

Audio #3
ID : 4
Format : AC-3
Format/Info : Audio Coding 3
Commercial name : Dolby Digital
Codec ID : A_AC3
Duration : 2 h 4 min
Bit rate mode : Constant
Bit rate : 640 kb/s
Channel(s) : 6 channels
Channel layout : L R C LFE Ls Rs
Sampling rate : 48.0 kHz
Frame rate : 31.250 FPS (1536 SPF)
Compression mode : Lossy
Stream size : 570 MiB (6%)
Title : Original
Language : English
Service kind : Complete Main
Default : No
Forced : No

Text #1
ID : 5
Format : UTF-8
Codec ID : S_TEXT/UTF8
Codec ID/Info : UTF-8 Plain Text
Duration : 2 h 1 min
Bit rate : 0 b/s
Frame rate : 0.001 FPS
Count of elements : 9
Stream size : 418 Bytes (0%)
Title : Forced
Language : Russian
Default : Yes
Forced : Yes

Text #2
ID : 6
Format : UTF-8
Codec ID : S_TEXT/UTF8
Codec ID/Info : UTF-8 Plain Text
Duration : 2 h 1 min
Bit rate : 66 b/s
Frame rate : 0.210 FPS
Count of elements : 1536
Stream size : 59.3 KiB (0%)
Title : Full [iTunes]
Language : Russian
Default : No
Forced : No

Text #3
ID : 7
Format : UTF-8
Codec ID : S_TEXT/UTF8
Codec ID/Info : UTF-8 Plain Text
Duration : 2 h 1 min
Bit rate : 75 b/s
Frame rate : 0.210 FPS
Count of elements : 1535
Stream size : 67.2 KiB (0%)
Title : Full [Cool Story Blog]
Language : Russian
Default : No
Forced : No

Text #4
ID : 8
Format : UTF-8
Codec ID : S_TEXT/UTF8
Codec ID/Info : UTF-8 Plain Text
Duration : 2 h 1 min
Bit rate : 44 b/s
Frame rate : 0.222 FPS
Count of elements : 1616
Stream size : 39.5 KiB (0%)
Title : Full
Language : English
Default : No
Forced : No

Text #5
ID : 9
Format : UTF-8
Codec ID : S_TEXT/UTF8
Codec ID/Info : UTF-8 Plain Text
Duration : 2 h 3 min
Bit rate : 57 b/s
Frame rate : 0.291 FPS
Count of elements : 2157
Stream size : 51.7 KiB (0%)
Title : SDH
Language : English
Default : No
Forced : No

Menu
00:00:00.000 : Chapter 01
00:02:41.995 : Chapter 02
00:05:34.459 : Chapter 03
00:07:56.434 : Chapter 04
00:10:10.360 : Chapter 05
00:14:29.577 : Chapter 06
00:19:58.447 : Chapter 07
00:23:06.218 : Chapter 08
00:26:38.931 : Chapter 09
00:32:35.495 : Chapter 10
00:35:00.724 : Chapter 11
00:40:31.387 : Chapter 12
00:46:52.685 : Chapter 13
00:49:05.025 : Chapter 14
00:59:21.683 : Chapter 15
01:07:43.059 : Chapter 16
01:14:10.821 : Chapter 17
01:17:20.261 : Chapter 18
01:21:01.190 : Chapter 19
01:24:25.727 : Chapter 20
01:35:33.269 : Chapter 21
01:45:07.343 : Chapter 22
01:47:55.803 : Chapter 23
01:50:07.100 : Chapter 24
01:52:45.092 : Chapter 25
01:55:10.904 : Chapter 26
01:56:31.359 : Chapter 27

Другие фильмы
Комментарии:

...
TimerhanBuranov 9 мая 2023 15:44
0

Дорогие товарищи добавьте многолоску от ЛостФильм во всех раздач в формате BDRip

Информация
Посетители, находящиеся в группе Гости, не могут оставлять комментарии к данной публикации.
Самый популярный релиз недели
Донаты
Мы в соц. сетях / RSS

Лучшие релизы месяца
Лучшие SD недели
Лучшие 720p недели
Лучшие 1080p недели
Лучшие 4K недели
Вы недавно смотрели
Реклама
Последние комментарии
...

rmzshka

12 июля 2024 11:30

...

Rustik99

12 июля 2024 10:11

...

-=DoMiNo=-

11 июля 2024 23:42

...

rmzshka

11 июля 2024 11:28

...

-=DoMiNo=-

10 июля 2024 15:08

Реклама