+14

65 / 65 (2023) WEB-DLRip 1080p от DoMiNo & селезень | D, P

Информация о фильме
Название: 65
Оригинальное название: 65
Год выпуска: 2023
Жанр: Боевик, приключения, драма, фантастика, триллер
Режиссер: Скотт Бек / Scott Beck, Брайан Вудс / Bryan Woods
В ролях: Адам Драйвер, Ариана Гринблатт, Хлоя Коулман, Ника Кинг, Брайан Дэйр

О фильме:
После катастрофы на неизвестной планете пилот Миллс быстро обнаруживает, что на самом деле он застрял на Земле… 65 миллионов лет назад. Теперь, имея только один шанс на спасение, Миллс и последняя выжившая Коа должны пробраться через неизвестную местность, кишащую опасными существами.

Выпущено: США, Канада, olumbia Pictures Corporation, Sony Pictures Entertainment (SPE), Bron Creative, Beck Woods
Продолжительность: 01:32:49
Перевод 1: Дублированный | Лицензия
Перевод 2: Профессиональный (многоголосый, закадровый) | Jaskier
Перевод 3: Профессиональный (многоголосый, закадровый) | TVShows
Субтитры: Русские (Full), украинские (Full), английские

Файл
Качество: WEB-DLRip 1080p [исх.2160p.4k]
Формат: MKV
Видео: 1920x800, 23.976 fps, MPEG-4 AVC, ~6959 Kbps
Аудио 1: AC3, 6 ch, ~384 kbps - | Русский | 65 / 65 (2023) WEB-DLRip 1080p от DoMiNo & селезень | D, P | Лицензия
Аудио 2: E-AC3, 6 ch, ~384 kbps - | Русский | | Лицензия
Аудио 3: AC3, 6 ch, ~384 kbps - | Русский | | Jaskier
Аудио 4: AC3, 2 ch, ~192 kbps - | Русский | | TVShows
Аудио 5: E-AC3+Atmos, 6 ch, 768 Кбит/с - | Английский | | Original
Формат субтитров: softsub (SRT)

65 / 65 (2023) WEB-DLRip 1080p от DoMiNo & селезень | D, P

Авторизуйтесь для получения доступа к скачиванию

Нет аккаунта? Регистрация открыта и займёт меньше минуты

Вход Регистрация

x264 [info]: frame I:866 Avg QP:16.05 size:159690
x264 [info]: frame P:32856 Avg QP:17.31 size: 67599
x264 [info]: frame B:99804 Avg QP:18.92 size: 24901

x264 [info]: frame I:866 Avg QP:16.05 size:159690
x264 [info]: frame P:32856 Avg QP:17.31 size: 67599
x264 [info]: frame B:99804 Avg QP:18.92 size: 24901

General
Unique ID : 81071919569730029543525812301026609178 (0x3CFDE23DC1AB13E3773952B94474C81A)
Complete name : E:VideoE65.2023.WEB-DLRip.1080p.seleZen.mkv
Format : Matroska
Format version : Version 4
File size : 5.88 GiB
Duration : 1 h 32 min
Overall bit rate : 9 071 kb/s
Frame rate : 23.976 FPS
Movie name : 65 2023 from seleZen
Encoded date : 2023-04-28 14:18:31 UTC
Writing application : mkvmerge v59.0.0 ('Shining Star') 64-bit
Writing library : libebml v1.4.2 + libmatroska v1.6.4

Video
ID : 1
Format : AVC
Format/Info : Advanced Video Codec
Format profile : [email protected]
Format settings : CABAC / 5 Ref Frames
Format settings, CABAC : Yes
Format settings, Reference : 5 frames
Codec ID : V_MPEG4/ISO/AVC
Duration : 1 h 32 min
Bit rate : 6 959 kb/s
Width : 1 920 pixels
Height : 800 pixels
Display aspect ratio : 2.40:1
Frame rate mode : Constant
Frame rate : 23.976 (24000/1001) FPS
Color space : YUV
Chroma subsampling : 4:2:0
Bit depth : 8 bits
Scan type : Progressive
Bits/(Pixel*Frame) : 0.189
Stream size : 4.51 GiB (77%)
Title : -=DoMiNo=-
Writing library : x264 core 164 r3106+55M 24adf88 t_mod_New | by -=DoMiNo=- | X86_64]
Encoding settings : cabac=1 / ref=5 / deblock=1:-1:-1 / analyse=0x3:0x133 / me=umh / subme=10 / psy=1 / fade_compensate=0.00 / psy_rd=1.05:0.15 / mixed_ref=1 / me_range=32 / chroma_me=1 / trellis=2 / 8x8dct=1 / cqm=0 / deadzone=21,11 / fast_pskip=0 / chroma_qp_offset=-3 / threads=24 / lookahead_threads=6 / sliced_threads=0 / nr=0 / decimate=0 / interlaced=0 / bluray_compat=0 / constrained_intra=0 / fgo=0 / bframes=12 / b_pyramid=2 / b_adapt=2 / b_bias=0 / direct=3 / weightb=1 / open_gop=0 / weightp=2 / keyint=240 / keyint_min=23 / scenecut=40 / intra_refresh=0 / rc_lookahead=60 / rc=crf / mbtree=0 / crf=19.5000 / qcomp=0.60 / qpmin=0:0:0 / qpmax=69:69:69 / qpstep=4 / vbv_maxrate=50000 / vbv_bufsize=62500 / crf_max=0.0 / nal_hrd=none / filler=0 / ip_ratio=1.35 / pb_ratio=1.25 / aq=3:0.90 / aq-sensitivity=10.00 / aq-factor=1.00:1.00:1.00 / aq2=0 / aq3=0
Language : English
Default : Yes
Forced : No

Audio #1
ID : 2
Format : AC-3
Format/Info : Audio Coding 3
Commercial name : Dolby Digital
Codec ID : A_AC3
Duration : 1 h 32 min
Bit rate mode : Constant
Bit rate : 384 kb/s
Channel(s) : 6 channels
Channel layout : L R C LFE Ls Rs
Sampling rate : 48.0 kHz
Frame rate : 31.250 FPS (1536 SPF)
Compression mode : Lossy
Stream size : 255 MiB (4%)
Title : Dub
Language : Russian
Service kind : Complete Main
Default : Yes
Forced : Yes

Audio #2
ID : 3
Format : E-AC-3
Format/Info : Enhanced AC-3
Commercial name : Dolby Digital Plus
Codec ID : A_EAC3
Duration : 1 h 32 min
Bit rate mode : Constant
Bit rate : 384 kb/s
Channel(s) : 6 channels
Channel layout : L R C LFE Ls Rs
Sampling rate : 48.0 kHz
Frame rate : 31.250 FPS (1536 SPF)
Compression mode : Lossy
Stream size : 255 MiB (4%)
Title : Dub
Language : Russian
Service kind : Complete Main
Default : No
Forced : No

Audio #3
ID : 4
Format : AC-3
Format/Info : Audio Coding 3
Commercial name : Dolby Digital
Codec ID : A_AC3
Duration : 1 h 32 min
Bit rate mode : Constant
Bit rate : 384 kb/s
Channel(s) : 6 channels
Channel layout : L R C LFE Ls Rs
Sampling rate : 48.0 kHz
Frame rate : 31.250 FPS (1536 SPF)
Compression mode : Lossy
Stream size : 255 MiB (4%)
Title : MVO_[Jaskier]
Language : Russian
Service kind : Complete Main
Default : No
Forced : No

Audio #4
ID : 5
Format : AC-3
Format/Info : Audio Coding 3
Commercial name : Dolby Digital
Codec ID : A_AC3
Duration : 1 h 32 min
Bit rate mode : Constant
Bit rate : 192 kb/s
Channel(s) : 2 channels
Channel layout : L R
Sampling rate : 48.0 kHz
Frame rate : 31.250 FPS (1536 SPF)
Compression mode : Lossy
Stream size : 127 MiB (2%)
Title : MVO_[TVShows]
Language : Russian
Service kind : Complete Main
Default : No
Forced : No

Audio #5
ID : 6
Format : E-AC-3 JOC
Format/Info : Enhanced AC-3 with Joint Object Coding
Commercial name : Dolby Digital Plus with Dolby Atmos
Codec ID : A_EAC3
Duration : 1 h 32 min
Bit rate mode : Constant
Bit rate : 768 kb/s
Channel(s) : 6 channels
Channel layout : L R C LFE Ls Rs
Sampling rate : 48.0 kHz
Frame rate : 31.250 FPS (1536 SPF)
Compression mode : Lossy
Delay relative to video : 22 ms
Stream size : 509 MiB (8%)
Title : Original
Language : English
Service kind : Complete Main
Default : No
Forced : No
Complexity index : 16
Number of dynamic objects : 15
Bed channel count : 1 channel
Bed channel configuration : LFE

Text #1
ID : 7
Format : UTF-8
Codec ID : S_TEXT/UTF8
Codec ID/Info : UTF-8 Plain Text
Duration : 1 h 31 min
Bit rate : 22 b/s
Frame rate : 0.070 FPS
Count of elements : 384
Stream size : 14.9 KiB (0%)
Title : Full
Language : Russian
Default : No
Forced : No

Text #2
ID : 8
Format : UTF-8
Codec ID : S_TEXT/UTF8
Codec ID/Info : UTF-8 Plain Text
Duration : 1 h 31 min
Bit rate : 21 b/s
Frame rate : 0.067 FPS
Count of elements : 369
Stream size : 14.4 KiB (0%)
Title : Full
Language : Ukrainian
Default : No
Forced : No

Text #3
ID : 9
Format : UTF-8
Codec ID : S_TEXT/UTF8
Codec ID/Info : UTF-8 Plain Text
Duration : 1 h 22 min
Bit rate : 15 b/s
Frame rate : 0.079 FPS
Count of elements : 389
Stream size : 9.18 KiB (0%)
Title : Full
Language : English (US)
Default : No
Forced : No

Text #4
ID : 10
Format : UTF-8
Codec ID : S_TEXT/UTF8
Codec ID/Info : UTF-8 Plain Text
Duration : 1 h 29 min
Bit rate : 20 b/s
Frame rate : 0.122 FPS
Count of elements : 653
Stream size : 13.1 KiB (0%)
Title : SDH
Language : English (US)
Default : No
Forced : No

Menu
00:00:00.000 : en:Глава 01
00:11:40.000 : en:Глава 02
00:23:20.000 : en:Глава 03
00:35:00.000 : en:Глава 04
00:46:40.000 : en:Глава 05
00:58:20.000 : en:Глава 06
01:10:00.000 : en:Глава 07
01:21:40.000 : en:Глава 08

Другие фильмы
Комментарии:

...
R4ZVEDKA 30 апреля 2023 11:32
-1

Хороший фильм, снят хорошо.

Информация
Посетители, находящиеся в группе Гости, не могут оставлять комментарии к данной публикации.
Самый популярный релиз недели
Донаты
Мы в соц. сетях / RSS

Лучшие релизы месяца
Лучшие SD недели
Лучшие 720p недели
Лучшие 1080p недели
Лучшие 4K недели
Вы недавно смотрели
Реклама
Последние комментарии
...

Bonzo

14 июня 2024 14:52

...

rmzshka

13 июня 2024 17:48

...

rmzshka

13 июня 2024 12:24

...

LisNick

13 июня 2024 08:45

...

SkySpirit

8 июня 2024 19:54

Реклама