+16

Шазам! Ярость богов / Shazam! Fury of the Gods (2023) BDRip 1080p от селезень | D

Информация о фильме
Название: Шазам! Ярость богов
Оригинальное название: Shazam! Fury of the Gods
Год выхода: 2023
Жанр: фэнтези, боевик, триллер, комедия, криминал, приключения
Режиссер: Дэвид Ф. Сандберг
В ролях: Закари Ливай, Эшер Энджел, Джек Дилан Грейзер, Рэйчел Зеглер, Адам Броди, Росс Батлер, Д.Дж. Котрона, Грейс Кэролайн Карри, Миган Гуд, Люси Лью

О фильме: 17-летний Билли Бэтсон, получивший дар превращаться в супергероя лет сорока, охраняет покой жителей Филадельфии вместе со своими приёмными братьями и сестрами, с которыми он поделился суперспособностями. В силу юности и недостатка дисциплины не всё у них получается идеально, и пресса называет команду супергероев «Филадельфийскими фиаско». Тем временем две женщины, представляющиеся дочерьми титана Атланта, крадут из греческого музея сломанный пополам волшебный жезл и направляются в Филадельфию, чтобы отобрать у супергероев магические силы.

Страна: США
Студия: DC Entertainment, New Line Cinema, Warner Bros.
Продолжительность: 02:10:15
Перевод: Дублированный | Bravo Records Georgia / Movie Dubbing

Качество: BDRip 1080p
Видео: MPEG-4 AVC, 1920x804, 12.6 Mbit/s, 23.976 fps
Аудио #01: 48 kHz, AC3, 5.1, 384 Kbps | Дублированный | Bravo Records Georgia / Movie Dubbing | RUS |Шазам! Ярость богов / Shazam! Fury of the Gods (2023) BDRip 1080p от селезень | D
Аудио #02: 48 kHz, E-AC3, 5.1, 384 Kbps | Дублированный | Bravo Records Georgia / Movie Dubbing | RUS |
Аудио #03: 48 kHz, AC3, 5.1, 640 Kbps | Оригинал | ENG |
Субтитры: Русские (Forced, full), английские

Шазам! Ярость богов / Shazam! Fury of the Gods (2023) BDRip 1080p от селезень | D

Авторизуйтесь для получения доступа к скачиванию

Нет аккаунта? Регистрация открыта и займёт меньше минуты

Вход Регистрация

General
Unique ID : 82798977510915591810833423554965500070 (0x3E4A80C59C33859D23E3D08235F170A6)
Complete name : D:\Video\Shazam!.Fury.of.the.Gods.2023.D.BDRip.1080p.seleZen.mkv
Format : Matroska
Format version : Version 4
File size : 12.8 GiB
Duration : 2 h 10 min
Overall bit rate : 14.0 Mb/s
Frame rate : 23.976 FPS
Movie name : Shazam.Fury.of.the.Gods 2023 from seleZen
Encoded date : 2023-05-16 13:58:56 UTC
Writing application : mkvmerge v59.0.0 ('Shining Star') 64-bit
Writing library : libebml v1.4.2 + libmatroska v1.6.4

Video
ID : 1
Format : AVC
Format/Info : Advanced Video Codec
Format profile : Progressive [email protected]
Format settings : CABAC / 4 Ref Frames
Format settings, CABAC : Yes
Format settings, Reference : 4 frames
Codec ID : V_MPEG4/ISO/AVC
Duration : 2 h 10 min
Bit rate : 12.6 Mb/s
Width : 1 920 pixels
Height : 804 pixels
Display aspect ratio : 2.40:1
Frame rate mode : Constant
Frame rate : 23.976 (24000/1001) FPS
Color space : YUV
Chroma subsampling : 4:2:0
Bit depth : 8 bits
Scan type : Progressive
Bits/(Pixel*Frame) : 0.341
Stream size : 11.5 GiB (90%)
Title : CHD
Writing library : x264 core 157 r2867+150 7e91e0e t_mod_Custom_2 [8-bit@all X86_64]
Encoding settings : cabac=1 / ref=4 / deblock=1:-3:-3 / analyse=0x3:0x133 / me=umh / subme=11 / psy=1 / fade_compensate=0.00 / psy_rd=0.90:0.10 / mixed_ref=1 / me_range=64 / chroma_me=1 / trellis=2 / 8x8dct=1 / cqm=0 / deadzone=21,11 / fast_pskip=0 / chroma_qp_offset=-4 / threads=25 / lookahead_threads=4 / sliced_threads=0 / nr=0 / decimate=1 / interlaced=0 / bluray_compat=0 / constrained_intra=0 / fgo=0 / bframes=8 / b_pyramid=2 / b_adapt=2 / b_bias=0 / direct=3 / weightb=1 / open_gop=0 / weightp=2 / keyint=250 / keyint_min=23 / scenecut=40 / intra_refresh=0 / rc_lookahead=60 / rc=crf / mbtree=0 / crf=17.7000 / qcomp=0.70 / qpmin=0:0:0 / qpmax=69:69:69 / qpstep=4 / vbv_maxrate=35000 / vbv_bufsize=35000 / crf_max=0.0 / nal_hrd=none / filler=0 / ip_ratio=1.40 / pb_ratio=1.30 / aq=3:1.00 / aq-sensitivity=10.00 / aq-factor=1.00:1.00:1.00 / aq2=0 / aq3=0
Language : English
Default : Yes
Forced : No

Audio #1
ID : 2
Format : AC-3
Format/Info : Audio Coding 3
Commercial name : Dolby Digital
Codec ID : A_AC3
Duration : 2 h 10 min
Bit rate mode : Constant
Bit rate : 384 kb/s
Channel(s) : 6 channels
Channel layout : L R C LFE Ls Rs
Sampling rate : 48.0 kHz
Frame rate : 31.250 FPS (1536 SPF)
Compression mode : Lossy
Stream size : 358 MiB (3%)
Title : Dub
Language : Russian
Service kind : Complete Main
Default : Yes
Forced : Yes

Audio #2
ID : 3
Format : E-AC-3
Format/Info : Enhanced AC-3
Commercial name : Dolby Digital Plus
Codec ID : A_EAC3
Duration : 2 h 10 min
Bit rate mode : Constant
Bit rate : 384 kb/s
Channel(s) : 6 channels
Channel layout : L R C LFE Ls Rs
Sampling rate : 48.0 kHz
Frame rate : 31.250 FPS (1536 SPF)
Compression mode : Lossy
Stream size : 358 MiB (3%)
Title : Dub
Language : Russian
Service kind : Complete Main
Default : No
Forced : No

Audio #3
ID : 4
Format : AC-3
Format/Info : Audio Coding 3
Commercial name : Dolby Digital
Codec ID : A_AC3
Duration : 2 h 10 min
Bit rate mode : Constant
Bit rate : 640 kb/s
Channel(s) : 6 channels
Channel layout : L R C LFE Ls Rs
Sampling rate : 48.0 kHz
Frame rate : 31.250 FPS (1536 SPF)
Compression mode : Lossy
Stream size : 596 MiB (5%)
Title : Original
Language : English
Service kind : Complete Main
Default : No
Forced : No

Text #1
ID : 5
Format : UTF-8
Codec ID : S_TEXT/UTF8
Codec ID/Info : UTF-8 Plain Text
Duration : 1 h 47 min
Bit rate : 2 b/s
Frame rate : 0.005 FPS
Count of elements : 34
Stream size : 1.75 KiB (0%)
Title : Forced
Language : Russian
Default : Yes
Forced : Yes

Text #2
ID : 6
Format : UTF-8
Codec ID : S_TEXT/UTF8
Codec ID/Info : UTF-8 Plain Text
Duration : 2 h 9 min
Bit rate : 80 b/s
Frame rate : 0.219 FPS
Count of elements : 1700
Stream size : 75.9 KiB (0%)
Title : Full
Language : Russian
Default : No
Forced : No

Text #3
ID : 7
Format : UTF-8
Codec ID : S_TEXT/UTF8
Codec ID/Info : UTF-8 Plain Text
Duration : 2 h 8 min
Bit rate : 56 b/s
Frame rate : 0.240 FPS
Count of elements : 1851
Stream size : 53.0 KiB (0%)
Title : Full
Language : English
Default : No
Forced : No

Text #4
ID : 8
Format : UTF-8
Codec ID : S_TEXT/UTF8
Codec ID/Info : UTF-8 Plain Text
Duration : 2 h 9 min
Bit rate : 67 b/s
Frame rate : 0.298 FPS
Count of elements : 2318
Stream size : 64.4 KiB (0%)
Title : SDH
Language : English
Default : No
Forced : No

Menu
00:00:00.000 : Chapter 01
00:09:53.009 : Chapter 02
00:19:34.965 : Chapter 03
00:25:45.294 : Chapter 04
00:33:57.744 : Chapter 05
00:43:35.696 : Chapter 06
00:50:57.596 : Chapter 07
00:57:31.698 : Chapter 08
01:06:40.997 : Chapter 09
01:16:40.346 : Chapter 10
01:19:10.287 : Chapter 11
01:28:51.785 : Chapter 12
01:35:34.270 : Chapter 13
01:43:02.468 : Chapter 14
01:50:37.923 : Chapter 15
01:57:19.783 : Chapter 16
02:08:33.998 : Chapter 17

Другие фильмы
У данной публикации пока нет комментариев.
Будь первым, оставь своё мнение в комментариях!
Информация
Посетители, находящиеся в группе Гости, не могут оставлять комментарии к данной публикации.
Самый популярный релиз недели
Донаты
Мы в соц. сетях / RSS

Лучшие релизы месяца
Лучшие SD недели
Лучшие 720p недели
Лучшие 1080p недели
Лучшие 4K недели
Вы недавно смотрели
Реклама
Последние комментарии
...

Bonzo

14 июня 2024 14:52

...

rmzshka

13 июня 2024 17:48

...

rmzshka

13 июня 2024 12:24

...

LisNick

13 июня 2024 08:45

...

SkySpirit

8 июня 2024 19:54

Реклама