+8

Золото Рейна / Золотой инкассатор / Rheingold (2022) BDRip-AVC от DoMiNo & селезень | D, P

Информация о фильме
Название: Золото Рейна / Золотой инкассатор
Оригинальное название: Rheingold
Год выхода: 2022
Жанр: Драма, криминал, биография, музыка
Режиссер: Фатих Акин
В ролях: Эмилио Сакрайя, Мона Пирзад, Юлия Голдберг, Согол Фагани, Карим Гюнес, Дога Гюрер, Самир Жебрелли, Хуссейн Элираки, Джесси Альберт, Хосе Баррош

Описание:
Настоящей школой для маленького Гивара были улицы. Повзрослев, он становится вышибалой и дилером, но однажды теряет крупную партию товара. Тогда вместе с сообщниками он похищает из инкассаторского фургона золото на 1,7 млн. евро. Золото словно испаряется в воздухе, а парень попадает в тюрьму. И превращается в самого известного гангста-рэпера Германии — Xatar.

Страна: Германия, Италия, Нидерланды
Студия: Bombero International, Corazón International, Lemming Film, Palosanto Films, Rai Cinema, Warner Bros. Film Productions Germany
Продолжительность: 02:18:14
Перевод 1: Профессиональный (полное дублирование) | Pride Production
Перевод 2: Профессиональный (многоголосый, закадровый) | Jaskier 18 +
Субтитры: Русские (Forced, Full), Английские, Немецкие

Файл
Формат: Matroska
Качество: BDRip-AVC
Видео: 1024x552 at 23.976 fps, [email protected], ~1875 kbps
Аудио 1: AC3, 6 ch, ~448 kbps - | Русский | Золото Рейна / Золотой инкассатор / Rheingold (2022) BDRip-AVC от DoMiNo & селезень | D, P
Аудио 2: AC3, 6 ch, ~384 kbps - | Русский |
Формат субтитров: softsub (SRT)

Золото Рейна / Золотой инкассатор / Rheingold (2022) BDRip-AVC от DoMiNo & селезень | D, P

Авторизуйтесь для получения доступа к скачиванию

Нет аккаунта? Регистрация открыта и займёт меньше минуты

Вход Регистрация

x264 [info]: frame I: 1503 Avg QP: 15.57 size: 62158
x264 [info]: frame P: 44275 Avg QP: 18.09 size: 20854
x264 [info]: frame B: 153069 Avg QP: 19.62 size: 6054

General
Unique ID: 193378898925156803957253032098597465152 (0×917B6BD41B9D3AEA223C290556606C40)
Complete name: K: Rheingold.2022.D.P.BDRip.x264.seleZen.mkv
Format: Matroska
Format version: Version 4
File size: 2.62 GiB
Duration: 2 h 18 min
Overall bit rate: 2 709 kb/s
Frame rate: 23.976 FPS
Movie name: Rheingold.2022.D.P.BDRip.x264.seleZen
Encoded date: 04.07.2024 19:57:13 UTC
Writing application: mkvmerge v85.0 ('Shame For You') 64-bit
Writing library: libebml v1.4.5 + libmatroska v1.7.1
Cover: Yes
Attachments: cover.jpg / small_cover.jpg

Video
ID: 1
Format: AVC
Format/Info: Advanced Video Codec
Format profile: [email protected]
Format settings: CABAC / 12 Ref Frames
Format settings, CABAC: Yes
Format settings, Reference: 12 frames
Codec ID: V_MPEG4/ISO/AVC
Duration: 2 h 18 min
Bit rate: 1 875 kb/s
Width: 1 024 pixels
Height: 552 pixels
Display aspect ratio: 1.85:1
Frame rate mode: Constant
Frame rate: 23.976 (24000/1001) FPS
Color space: YUV
Chroma subsampling: 4:2:0
Bit depth: 8 bits
Scan type: Progressive
Bits/(Pixel*Frame): 0.138
Stream size: 1.81 GiB (69%)
Title: -=DoMiNo=-
Writing library: x264 core 164 r3106+55M 24adf88 t_mod_New | by -=DoMiNo=- | X86_64]
Encoding settings: cabac=1 / ref=12 / deblock=1:-3:-3 / analyse=0×3:0×133 / me=umh / subme=10 / psy=1 / fade_compensate=0.00 / psy_rd=1.02:0.03 / mixed_ref=1 / me_range=32 / chroma_me=1 / trellis=2 / 8×8dct=1 / cqm=0 / deadzone=21,11 / fast_pskip=0 / chroma_qp_offset=-3 / threads=17 / lookahead_threads=4 / sliced_threads=0 / nr=0 / decimate=1 / interlaced=0 / bluray_compat=0 / constrained_intra=0 / fgo=0 / bframes=12 / b_pyramid=2 / b_adapt=2 / b_bias=0 / direct=3 / weightb=1 / open_gop=0 / weightp=2 / keyint=240 / keyint_min=23 / scenecut=40 / intra_refresh=0 / rc_lookahead=60 / rc=2pass / mbtree=0 / bitrate=1875 / ratetol=1.0 / qcomp=0.70 / qpmin=0:0:0 / qpmax=69:69:69 / qpstep=4 / cplxblur=20.0 / qblur=0.5 / vbv_maxrate=50000 / vbv_bufsize=62500 / nal_hrd=none / filler=0 / ip_ratio=1.18 / pb_ratio=1.30 / aq=3:0.90 / aq-sensitivity=10.00 / aq-factor=1.00:1.00:1.00 / aq2=0 / aq3=0
Language: English
Default: Yes
Forced: No

Audio #1
ID: 2
Format: AC-3
Format/Info: Audio Coding 3
Commercial name: Dolby Digital
Codec ID: A_AC3
Duration: 2 h 18 min
Bit rate mode: Constant
Bit rate: 448 kb/s
Channel (s): 6 channels
Channel layout: L R C LFE Ls Rs
Sampling rate: 48.0 kHz
Frame rate: 31.250 FPS (1536 SPF)
Compression mode: Lossy
Stream size: 443 MiB (17%)
Title: DUB — Pride Production
Language: Russian
Service kind: Complete Main
Default: Yes
Forced: No
Dialog Normalization: -25 dB
compr: -0.28 dB
cmixlev: -3.0 dB
surmixlev: -3 dB
dmixmod: Lo/Ro
ltrtcmixlev: -3.0 dB
ltrtsurmixlev: -3.0 dB
lorocmixlev: -3.0 dB
lorosurmixlev: -3.0 dB
dialnorm_Average: -25 dB
dialnorm_Minimum: -25 dB
dialnorm_Maximum: -25 dB

Audio #2
ID: 3
Format: AC-3
Format/Info: Audio Coding 3
Commercial name: Dolby Digital
Codec ID: A_AC3
Duration: 2 h 18 min
Bit rate mode: Constant
Bit rate: 384 kb/s
Channel (s): 6 channels
Channel layout: L R C LFE Ls Rs
Sampling rate: 48.0 kHz
Frame rate: 31.250 FPS (1536 SPF)
Compression mode: Lossy
Stream size: 380 MiB (14%)
Title: MVO — Jaskier
Language: Russian
Service kind: Complete Main
Default: No
Forced: No
Dialog Normalization: -27 dB
compr: -0.28 dB
dynrng: -1.48 dB
cmixlev: -3.0 dB
surmixlev: -3 dB
mixlevel: 285 dB
roomtyp: Small
dialnorm_Average: -27 dB
dialnorm_Minimum: -27 dB
dialnorm_Maximum: -27 dB

Text #1
ID: 4
Format: UTF-8
Codec ID: S_TEXT/UTF8
Codec ID/Info: UTF-8 Plain Text
Duration: 2 h 8 min
Bit rate: 12 b/s
Frame rate: 0.023 FPS
Count of elements: 174
Stream size: 11.4 KiB (0%)
Title: Forced
Language: Russian
Default: No
Forced: No

Text #2
ID: 5
Format: UTF-8
Codec ID: S_TEXT/UTF8
Codec ID/Info: UTF-8 Plain Text
Duration: 2 h 10 min
Bit rate: 93 b/s
Frame rate: 0.214 FPS
Count of elements: 1672
Stream size: 89.0 KiB (0%)
Title: Full
Language: Russian
Default: No
Forced: No

Text #3
ID: 6
Format: UTF-8
Codec ID: S_TEXT/UTF8
Codec ID/Info: UTF-8 Plain Text
Duration: 2 h 12 min
Bit rate: 43 b/s
Frame rate: 0.159 FPS
Count of elements: 1271
Stream size: 42.6 KiB (0%)
Title: English full
Language: English
Default: No
Forced: No

Text #4
ID: 7
Format: UTF-8
Codec ID: S_TEXT/UTF8
Codec ID/Info: UTF-8 Plain Text
Duration: 2 h 0 min
Bit rate: 13 b/s
Frame rate: 0.054 FPS
Count of elements: 390
Stream size: 11.6 KiB (0%)
Title: Forced
Language: German
Default: No
Forced: No

Text #5
ID: 8
Format: UTF-8
Codec ID: S_TEXT/UTF8
Codec ID/Info: UTF-8 Plain Text
Duration: 2 h 17 min
Bit rate: 62 b/s
Frame rate: 0.202 FPS
Count of elements: 1667
Stream size: 62.5 KiB (0%)
Title: German full
Language: German
Default: No
Forced: No

Menu
00:00:00.000: en: Chapter 01
00:10:48.356: en: Chapter 02
00:19:58.822: en: Chapter 03
00:30:34.749: en: Chapter 04
00:43:46.624: en: Chapter 05
00:56:16.081: en: Chapter 06
01:08:55.381: en: Chapter 07
01:21:46.276: en: Chapter 08
01:32:07.438: en: Chapter 09
01:46:08.945: en: Chapter 10
01:57:43.514: en: Chapter 11
02:07:49.203: en: Chapter 12

Другие фильмы
У данной публикации пока нет комментариев.
Будь первым, оставь своё мнение в комментариях!
Информация
Посетители, находящиеся в группе Гости, не могут оставлять комментарии к данной публикации.
Самый популярный релиз недели
Донаты
Мы в соц. сетях / RSS

Лучшие релизы месяца
Лучшие SD недели
Лучшие 720p недели
Лучшие 1080p недели
Лучшие 4K недели
Вы недавно смотрели
Реклама
Последние комментарии
...

rmzshka

12 июля 2024 11:30

...

Rustik99

12 июля 2024 10:11

...

-=DoMiNo=-

11 июля 2024 23:42

...

rmzshka

11 июля 2024 11:28

...

-=DoMiNo=-

10 июля 2024 15:08

Реклама