+5

Оставленные позади: Восстание Антихриста / Left Behind: Rise of the Antichrist (2023) BDRip-AVC от DoMiNo & селезень | P

Информация о фильме
Название: Оставленные позади: Восстание антихриста
Оригинальное название: Left Behind: Rise of the Antichrist
Жанр: триллер, детектив
Год выпуска: 2023
Режиссер: Кевин Сорбо / Kevin Sorbo
В ролях: Кевин Сорбо, Mary Armstrong, Марк Беллами, Стюарт Бентли, Корбин Бернсен, Larry Bullied, Бэйли Чейз, Пол Коулинг, Сара Фишер, Angela Hinton

Описание:
После того, как мир погрузился в хаос, единственным проблеском света становится новый обаятельный лидер, который встаёт во главе ООН, но принесет ли он надежду на лучшее будущее? Или это конец света?

Страна: Канада
Студия: Amcomri Entertainment, Stonagal Pictures
Продолжительность: 01:55:43
Перевод: Профессиональный (многоголосый закадровый) | TVShows
Субтитры: Английские

Файл
Формат: Matroska
Качество: BDRip-AVC
Видео: 1024x428 at 23.976 fps, [email protected], ~1616 kbps
Аудио: AC3, 2 ch, ~192 kbps - | Русский | Оставленные позади: Восстание Антихриста / Left Behind: Rise of the Antichrist (2023) BDRip-AVC от DoMiNo & селезень | P
Формат субтитров: softsub (SRT)

Оставленные позади: Восстание Антихриста / Left Behind: Rise of the Antichrist (2023) BDRip-AVC от DoMiNo & селезень | P

Авторизуйтесь для получения доступа к скачиванию

Нет аккаунта? Регистрация открыта и займёт меньше минуты

Вход Регистрация

x264 [info]: frame I:1626 Avg QP:13.28 size: 49438
x264 [info]: frame P:31159 Avg QP:15.01 size: 17741
x264 [info]: frame B:133673 Avg QP:17.20 size: 5705

General
Unique ID : 274187029023244574361755228858604964343 (0xCE46803EA46639716AD3EC930409C9F7)
Complete name : I:Left.Behind.Rise.of.the.Antichrist.2023.BDRip.x264.seleZen.mkv
Format : Matroska
Format version : Version 4
File size : 1.46 GiB
Duration : 1 h 55 min
Overall bit rate : 1 803 kb/s
Movie name : Left.Behind.Rise.of.the.Antichrist.2023.BDRip.x264.seleZen
Encoded date : UTC 18.03.2023 12:06:12
Writing application : mkvmerge v74.0.0 ('You Oughta Know') 64-bit
Writing library : libebml v1.4.4 + libmatroska v1.7.1
Cover : Yes
Attachments : cover.jpg / small_cover.jpg

Video
ID : 1
Format : AVC
Format/Info : Advanced Video Codec
Format profile : [email protected]
Format settings : CABAC / 12 Ref Frames
Format settings, CABAC : Yes
Format settings, Reference : 12 frames
Codec ID : V_MPEG4/ISO/AVC
Duration : 1 h 55 min
Bit rate : 1 616 kb/s
Width : 1 024 pixels
Height : 428 pixels
Display aspect ratio : 2.40:1
Frame rate mode : Constant
Frame rate : 23.976 (24000/1001) FPS
Color space : YUV
Chroma subsampling : 4:2:0
Bit depth : 8 bits
Scan type : Progressive
Bits/(Pixel*Frame) : 0.154
Stream size : 1.30 GiB (89%)
Title : -=DoMiNo=-
Writing library : x264 core 164 r3106+55M 24adf88 t_mod_New | by -=DoMiNo=- | X86_64]
Encoding settings : cabac=1 / ref=12 / deblock=1:-3:-3 / analyse=0×3:0×133 / me=umh / subme=10 / psy=1 / fade_compensate=0.00 / psy_rd=1.05:0.03 / mixed_ref=1 / me_range=32 / chroma_me=1 / trellis=2 / 8×8dct=1 / cqm=0 / deadzone=21,11 / fast_pskip=0 / chroma_qp_offset=-3 / threads=17 / lookahead_threads=3 / sliced_threads=0 / nr=0 / decimate=1 / interlaced=0 / bluray_compat=0 / constrained_intra=0 / fgo=0 / bframes=10 / b_pyramid=2 / b_adapt=2 / b_bias=0 / direct=3 / weightb=1 / open_gop=0 / weightp=2 / keyint=240 / keyint_min=23 / scenecut=40 / intra_refresh=0 / rc_lookahead=60 / rc=2pass / mbtree=0 / bitrate=1616 / ratetol=1.0 / qcomp=0.70 / qpmin=0:0:0 / qpmax=69:69:69 / qpstep=4 / cplxblur=20.0 / qblur=0.5 / vbv_maxrate=50000 / vbv_bufsize=62500 / nal_hrd=none / filler=0 / ip_ratio=1.24 / pb_ratio=1.30 / aq=3:0.90 / aq-sensitivity=10.00 / aq-factor=1.00:1.00:1.00 / aq2=0 / aq3=0
Language : English
Default : Yes
Forced : No

Audio
ID : 2
Format : AC-3
Format/Info : Audio Coding 3
Commercial name : Dolby Digital
Codec ID : A_AC3
Duration : 1 h 55 min
Bit rate mode : Constant
Bit rate : 192 kb/s
Channel (s) : 2 channels
Channel layout : L R
Sampling rate : 48.0 kHz
Frame rate : 31.250 FPS (1536 SPF)
Compression mode : Lossy
Stream size : 159 MiB (11%)
Title : MVO_[TVShows]
Language : Russian
Service kind : Complete Main
Default : Yes
Forced : Yes

Text #1
ID : 3
Format : UTF-8
Codec ID : S_TEXT/UTF8
Codec ID/Info : UTF-8 Plain Text
Duration : 1 h 55 min
Bit rate : 81 b/s
Frame rate : 0.290 FPS
Count of elements : 2005
Stream size : 68.6 KiB (0%)
Title : Full
Language : English
Default : No
Forced : No

Text #2
ID : 4
Format : UTF-8
Codec ID : S_TEXT/UTF8
Codec ID/Info : UTF-8 Plain Text
Duration : 1 h 55 min
Bit rate : 82 b/s
Frame rate : 0.296 FPS
Count of elements : 2052
Stream size : 70.1 KiB (0%)
Title : SDH
Language : English
Default : No
Forced : No

Menu
00:00:00.000 : en:Chapter 01
00:21:02.719 : en:Chapter 02
00:40:38.436 : en:Chapter 03
00:57:14.556 : en:Chapter 04
01:17:23.680 : en:Chapter 05
01:36:11.682 : en:Chapter 06
01:51:41.194 : en:Chapter 07

Другие фильмы
У данной публикации пока нет комментариев.
Будь первым, оставь своё мнение в комментариях!
Информация
Посетители, находящиеся в группе Гости, не могут оставлять комментарии к данной публикации.
Самый популярный релиз недели
Донаты
Мы в соц. сетях / RSS

Лучшие релизы месяца
Лучшие SD недели
Лучшие 720p недели
Лучшие 1080p недели
Лучшие 4K недели
Вы недавно смотрели
Реклама
Последние комментарии
...

-=DoMiNo=-

9 апреля 2024 17:43

...

supermehanik

9 апреля 2024 16:22

...

selezinka

5 апреля 2024 16:20

...

Kirk1991

30 марта 2024 15:04

...

Robot

22 марта 2024 09:33

Реклама