+7

Пропавшая без вести / Missing (2023) BDRip 1080p от селезень | D, P

Информация о фильме
Название: Пропавшая без вести
Оригинальное название: Missing
Год выпуска: 2023
Жанр: Триллер, детектив, драма
Режиссер: Николас Д. Джонсон, Уилл Меррик
В ролях: Сторм Рид, Ниа Лонг, Жоаким ди Алмейда, Кен Люн, Эми Ландекер, Дэниэл Хенни, Тим Гриффин, Меган Сури, Лиза Ямада, Майкл Сеговия

О фильме:
Когда мать девушки Джун со своим новым бойфрендом исчезает во время отпуска в Колумбии, дочь начинает поиски. Находясь в Лос-Анджелесе, Джун творчески использует новейшие технологии, но чем больше она узнаёт, тем больше возникает вопросов. Девушка понимает, что на самом деле никогда не знала мать.

Выпущено: США, Stage 6 Films
Продолжительность: 01:50:42
Перевод 1: Дублированный | Bravo Records Georgia / Movie Dubbing
Перевод 2: Профессиональный (многоголосый, закадровый) | Jaskier
Перевод 3: Профессиональный (многоголосый, закадровый) | TVShows
Субтитры: Русские (Forced, Full), украинские (Full), английские, французские

Файл
Качество: BDRip 1080p
Формат: MKV
Видео: 1920×1080, 23.976 fps, MPEG-4 AVC, ~9547 Kbps
Аудио 1: AC3, 6 ch, ~384 kbps — | Русский | Пропавшая без вести / Missing (2023) BDRip 1080p от селезень | D, P | Bravo Records Georgia / Movie Dubbing
Аудио 2: AC3, 6 ch, ~384 kbps — | Русский | | Jaskier
Аудио 3: AC3, 6 ch, ~384 kbps — | Русский | | TVShows
Аудио 4: AC3, 6 ch, ~640 kbps — | Английский |
Формат субтитров: softsub (SRT)

Пропавшая без вести / Missing (2023) BDRip 1080p от селезень | D, P

Авторизуйтесь для получения доступа к скачиванию

Нет аккаунта? Регистрация открыта и займёт меньше минуты

Вход Регистрация

General
Unique ID : 308144758901322377819237394912449880612 (0xE7D2859722D8DF23541CF04A2C9B6224)
Complete name : E:VideoEMissing.2023.BDRip.1080p.seleZen.mkv
Format : Matroska
Format version : Version 4
File size : 8.77 GiB
Duration : 1 h 50 min
Overall bit rate : 11.3 Mb/s
Frame rate : 23.976 FPS
Movie name : Missing.2023.seleZen
Encoded date : 28.04.2023 14:35:30 UTC
Writing application : mkvmerge v59.0.0 ('Shining Star') 64-bit
Writing library : libebml v1.4.2 + libmatroska v1.6.4
Cover : Yes
Attachments : cover.jpg / small_cover.jpg

Video
ID : 1
Format : AVC
Format/Info : Advanced Video Codec
Format profile : [email protected]
Format settings : CABAC / 4 Ref Frames
Format settings, CABAC : Yes
Format settings, Reference : 4 frames
Codec ID : V_MPEG4/ISO/AVC
Duration : 1 h 50 min
Bit rate : 9 547 kb/s
Width : 1 920 pixels
Height : 1 080 pixels
Display aspect ratio : 16:9
Frame rate mode : Constant
Frame rate : 23.976 (24000/1001) FPS
Color space : YUV
Chroma subsampling : 4:2:0
Bit depth : 8 bits
Scan type : Progressive
Bits/(Pixel*Frame) : 0.192
Stream size : 7.38 GiB (84%)
Title : MTeam
Writing library : x264 core 157 r2938 2b00a84 TnP@MTeam Mod
Encoding settings : cabac=1 / ref=4 / deblock=1:-3:-3 / analyse=0×3:0×133 / me=umh / subme=10 / psy=1 / psy_rd=1.05:0.00 / mixed_ref=1 / me_range=32 / chroma_me=1 / trellis=2 / 8×8dct=1 / cqm=0 / deadzone=21,11 / fast_pskip=0 / chroma_qp_offset=-2 / threads=12 / lookahead_threads=2 / sliced_threads=0 / nr=0 / decimate=0 / interlaced=0 / bluray_compat=0 / constrained_intra=0 / bframes=8 / b_pyramid=2 / b_adapt=2 / b_bias=0 / direct=3 / weightb=1 / open_gop=0 / weightp=2 / keyint=250 / keyint_min=24 / scenecut=40 / intra_refresh=0 / rc_lookahead=250 / rc=crf / mbtree=0 / crf=16.8 / qcomp=0.60 / qpmin=0 / qpmax=69 / qpstep=4 / vbv_maxrate=62500 / vbv_bufsize=78125 / crf_max=0.0 / nal_hrd=none / filler=0 / ip_ratio=1.30 / pb_ratio=1.20 / aq=3:0.80
Language : English
Default : Yes
Forced : No
Color range : Limited
Color primaries : BT.709
Matrix coefficients : BT.709

Audio #1
ID : 2
Format : AC-3
Format/Info : Audio Coding 3
Commercial name : Dolby Digital
Codec ID : A_AC3
Duration : 1 h 50 min
Bit rate mode : Constant
Bit rate : 384 kb/s
Channel (s) : 6 channels
Channel layout : L R C LFE Ls Rs
Sampling rate : 48.0 kHz
Frame rate : 31.250 FPS (1536 SPF)
Compression mode : Lossy
Stream size : 304 MiB (3%)
Title : Dub_[Bravo Records Georgia / Movie Dubbing]
Language : Russian
Service kind : Complete Main
Default : Yes
Forced : Yes

Audio #2
ID : 3
Format : AC-3
Format/Info : Audio Coding 3
Commercial name : Dolby Digital
Codec ID : A_AC3
Duration : 1 h 50 min
Bit rate mode : Constant
Bit rate : 384 kb/s
Channel (s) : 6 channels
Channel layout : L R C LFE Ls Rs
Sampling rate : 48.0 kHz
Frame rate : 31.250 FPS (1536 SPF)
Compression mode : Lossy
Stream size : 304 MiB (3%)
Title : MVO_[Jaskier]
Language : Russian
Service kind : Complete Main
Default : No
Forced : No

Audio #3
ID : 4
Format : AC-3
Format/Info : Audio Coding 3
Commercial name : Dolby Digital
Codec ID : A_AC3
Duration : 1 h 50 min
Bit rate mode : Constant
Bit rate : 384 kb/s
Channel (s) : 6 channels
Channel layout : L R C LFE Ls Rs
Sampling rate : 48.0 kHz
Frame rate : 31.250 FPS (1536 SPF)
Bit depth : 16 bits
Compression mode : Lossy
Stream size : 304 MiB (3%)
Title : MVO_[TVShows]
Language : Russian
Service kind : Complete Main
Default : No
Forced : No

Audio #4
ID : 5
Format : AC-3
Format/Info : Audio Coding 3
Commercial name : Dolby Digital
Codec ID : A_AC3
Duration : 1 h 50 min
Bit rate mode : Constant
Bit rate : 640 kb/s
Channel (s) : 6 channels
Channel layout : L R C LFE Ls Rs
Sampling rate : 48.0 kHz
Frame rate : 31.250 FPS (1536 SPF)
Compression mode : Lossy
Stream size : 507 MiB (6%)
Title : Original
Language : English
Service kind : Complete Main
Default : No
Forced : No

Text #1
ID : 6
Format : UTF-8
Codec ID : S_TEXT/UTF8
Codec ID/Info : UTF-8 Plain Text
Duration : 1 h 49 min
Bit rate : 27 b/s
Frame rate : 0.090 FPS
Count of elements : 590
Stream size : 22.2 KiB (0%)
Title : Forced
Language : Russian
Default : Yes
Forced : Yes

Text #2
ID : 7
Format : UTF-8
Codec ID : S_TEXT/UTF8
Codec ID/Info : UTF-8 Plain Text
Duration : 1 h 49 min
Bit rate : 94 b/s
Frame rate : 0.255 FPS
Count of elements : 1681
Stream size : 75.8 KiB (0%)
Title : Full
Language : Russian
Default : No
Forced : No

Text #3
ID : 8
Format : UTF-8
Codec ID : S_TEXT/UTF8
Codec ID/Info : UTF-8 Plain Text
Duration : 1 h 49 min
Bit rate : 111 b/s
Frame rate : 0.265 FPS
Count of elements : 1746
Stream size : 89.4 KiB (0%)
Title : Full
Language : Ukrainian
Default : No
Forced : No

Text #4
ID : 9
Format : UTF-8
Codec ID : S_TEXT/UTF8
Codec ID/Info : UTF-8 Plain Text
Duration : 1 h 42 min
Bit rate : 48 b/s
Frame rate : 0.212 FPS
Count of elements : 1301
Stream size : 36.5 KiB (0%)
Title : Full
Language : English (US)
Default : No
Forced : No

Text #5
ID : 10
Format : UTF-8
Codec ID : S_TEXT/UTF8
Codec ID/Info : UTF-8 Plain Text
Duration : 1 h 48 min
Bit rate : 50 b/s
Frame rate : 0.226 FPS
Count of elements : 1474
Stream size : 40.3 KiB (0%)
Title : SDH
Language : English (US)
Default : No
Forced : No

Text #6
ID : 11
Format : UTF-8
Codec ID : S_TEXT/UTF8
Codec ID/Info : UTF-8 Plain Text
Duration : 1 h 49 min
Bit rate : 48 b/s
Frame rate : 0.216 FPS
Count of elements : 1422
Stream size : 39.4 KiB (0%)
Language : French (FR)
Default : No
Forced : No

Menu
00:00:00.000 : Chapter 01
00:04:57.422 : Chapter 02
00:13:28.433 : Chapter 03
00:19:20.117 : Chapter 04
00:25:03.335 : Chapter 05
00:28:05.017 : Chapter 06
00:32:03.213 : Chapter 07
00:34:34.364 : Chapter 08
00:37:47.140 : Chapter 09
00:45:35.524 : Chapter 10
00:52:36.528 : Chapter 11
01:01:25.098 : Chapter 12
01:06:37.869 : Chapter 13
01:14:21.707 : Chapter 14
01:22:35.909 : Chapter 15
01:31:16.846 : Chapter 16

Другие фильмы
У данной публикации пока нет комментариев.
Будь первым, оставь своё мнение в комментариях!
Информация
Посетители, находящиеся в группе Гости, не могут оставлять комментарии к данной публикации.
Самый популярный релиз недели
Донаты
Мы в соц. сетях / RSS

Лучшие релизы месяца
Лучшие SD недели
Лучшие 720p недели
Лучшие 1080p недели
Лучшие 4K недели
Вы недавно смотрели
Реклама
Последние комментарии
...

-=DoMiNo=-

9 апреля 2024 17:43

...

supermehanik

9 апреля 2024 16:22

...

selezinka

5 апреля 2024 16:20

...

Kirk1991

30 марта 2024 15:04

...

Robot

22 марта 2024 09:33

Реклама