+13

Вынужденная месть / Forced Vengeance (1982) BDRip 720p от DoMiNo & селезень | P, A

Информация о фильме
Название: Вынужденная месть
Оригинальное название: Forced Vengeance
Год выхода: 1982
Жанр: Боевик, триллер, криминал, приключения
Режиссер: Джеймс Фарго
В ролях: Чак Норрис, Мэри Луиз Уэллер, Камила Григгс, Майкл Кавана, Дэвид Опатошу, Сейджи Сакагучи, Фрэнк Майкл Лью, Боб Майнор, Чунг Кеи Лау, Ллойд Кино, Ли Хэмилтон

О фильме:
Лос-Анджелес. Из Гонконга прибывает посланец кредитора, желающего получить неуплаченные долги. После ряда физических «убеждений» деньги поступают бесперебойно. Гонконг. Игорный дом, в котором работает этот «посланец» — шеф службы безопасности, — подвергается нападению. Это предупреждение со стороны другой могущественной мафиозной семьи, которая жаждит перекупить дело. В разгоревшейся борьбе гибнет верхушка клана: герою фильма удается спасти только дочь своего шефа. Сейчас против него — полиция, пытающаяся по научению влиятельной мафиозной семьи приписать ему эти убийства, плюс боевики, разыскивающие его, чтобы помешать справедливой мести за смерть его друзей.

Страна: США
Студия: Metro-Goldwyn-Mayer (MGM), SLM Production Group
Продолжительность: 01:30:21
Перевод 1: Профессиональный (многоголосый, закадровый) | ОРТ
Перевод 2: Профессиональный (многоголосый, закадровый) | ТВ3
Перевод 3: Авторский | Андрей Гаврилов
Перевод 4: Авторский | Василий Горчаков
Субтитры: Русские (Full), Английские

Файл
Формат: Matroska
Качество: BDRip 720p
Видео: 1280x690 at 24.000 fps, [email protected], ~7558 kbps
Аудио 1: AC3, 2 ch, ~256 kbps - | Русский | Вынужденная месть / Forced Vengeance (1982) BDRip 720p от DoMiNo & селезень | P, A | MVO ОРТ
Аудио 2: AC3, 2 ch, ~256 kbps - | Русский | | MVO ТВ3
Аудио 3: AC3, 2 ch, ~256 kbps - | Русский | | AVO Андрей Гаврилов
Аудио 4: AC3, 2 ch, ~256 kbps - | Русский | | AVO Василий Горчаков
Аудио 5: AC3, 2 ch, ~256 kbps - | Английский | | Original
Формат субтитров: softsub (SRT)

Авторизуйтесь для получения доступа к скачиванию

Нет аккаунта? Регистрация открыта и займёт меньше минуты

Вход Регистрация

General
Unique ID: 301111439549570980137789528108011952468 (0xE287F42C685A1644431FBECE25411954)
Complete name: T: Forced.Vengeance.1982.MVO.AVO.BDRip.720p.x264.seleZen.mkv
Format: Matroska
Format version: Version 4
File size: 5.58 GiB
Duration: 1 h 30 min
Overall bit rate: 8 841 kb/s
Frame rate: 24.000 FPS
Movie name: Forced.Vengeance.1982.MVO.AVO.BDRip.720p.x264.seleZen
Encoded date: 09.04.2024 06:06:32 UTC
Writing application: mkvmerge v83.0 ('Circle Of Friends') 64-bit
Writing library: libebml v1.4.5 + libmatroska v1.7.1
Cover: Yes
Attachments: cover.jpg / small_cover.jpg

Video
ID: 1
Format: AVC
Format/Info: Advanced Video Codec
Format profile: [email protected]
Format settings: CABAC / 9 Ref Frames
Format settings, CABAC: Yes
Format settings, Reference: 9 frames
Codec ID: V_MPEG4/ISO/AVC
Duration: 1 h 30 min
Bit rate: 7 558 kb/s
Width: 1 280 pixels
Height: 690 pixels
Display aspect ratio: 1.85:1
Frame rate mode: Constant
Frame rate: 24.000 FPS
Color space: YUV
Chroma subsampling: 4:2:0
Bit depth: 8 bits
Scan type: Progressive
Bits/(Pixel*Frame): 0.357
Stream size: 4.77 GiB (85%)
Title: -=DoMiNo=-
Writing library: x264 core 164 r3190 -DoMiNo
Encoding settings: cabac=1 / ref=9 / deblock=1:-1:-1 / analyse=0×3:0×133 / me=umh / subme=10 / psy=1 / psy_rd=1.00:0.00 / mixed_ref=1 / me_range=32 / chroma_me=1 / trellis=2 / 8×8dct=1 / cqm=0 / deadzone=21,11 / fast_pskip=0 / chroma_qp_offset=-2 / threads=22 / lookahead_threads=5 / sliced_threads=0 / nr=0 / decimate=0 / interlaced=0 / bluray_compat=0 / constrained_intra=0 / bframes=10 / b_pyramid=2 / b_adapt=2 / b_bias=0 / direct=1 / weightb=1 / open_gop=0 / weightp=2 / keyint=240 / keyint_min=24 / scenecut=40 / intra_refresh=0 / rc_lookahead=60 / rc=crf / mbtree=0 / crf=18.5 / qcomp=0.60 / qpmin=0 / qpmax=69 / qpstep=4 / vbv_maxrate=50000 / vbv_bufsize=62500 / crf_max=0.0 / nal_hrd=none / filler=0 / ip_ratio=1.35 / pb_ratio=1.30 / aq=1:1.00
Language: English
Default: Yes
Forced: No
Color range: Limited
Color primaries: BT.709
Transfer characteristics: BT.709
Matrix coefficients: BT.709

Audio #1
ID: 2
Format: AC-3
Format/Info: Audio Coding 3
Commercial name: Dolby Digital
Codec ID: A_AC3
Duration: 1 h 30 min
Bit rate mode: Constant
Bit rate: 256 kb/s
Channel (s): 2 channels
Channel layout: L R
Sampling rate: 48.0 kHz
Frame rate: 31.250 FPS (1536 SPF)
Compression mode: Lossy
Stream size: 165 MiB (3%)
Title: MVO ОРТ
Language: Russian
Service kind: Complete Main
Default: Yes
Forced: No

Audio #2
ID: 3
Format: AC-3
Format/Info: Audio Coding 3
Commercial name: Dolby Digital
Codec ID: A_AC3
Duration: 1 h 30 min
Bit rate mode: Constant
Bit rate: 256 kb/s
Channel (s): 2 channels
Channel layout: L R
Sampling rate: 48.0 kHz
Frame rate: 31.250 FPS (1536 SPF)
Compression mode: Lossy
Stream size: 165 MiB (3%)
Title: MVO ТВ3
Language: Russian
Service kind: Complete Main
Default: No
Forced: No

Audio #3
ID: 4
Format: AC-3
Format/Info: Audio Coding 3
Commercial name: Dolby Digital
Codec ID: A_AC3
Duration: 1 h 30 min
Bit rate mode: Constant
Bit rate: 256 kb/s
Channel (s): 2 channels
Channel layout: L R
Sampling rate: 48.0 kHz
Frame rate: 31.250 FPS (1536 SPF)
Compression mode: Lossy
Stream size: 165 MiB (3%)
Title: AVO Андрей Гаврилов
Language: Russian
Service kind: Complete Main
Default: No
Forced: No

Audio #4
ID: 5
Format: AC-3
Format/Info: Audio Coding 3
Commercial name: Dolby Digital
Codec ID: A_AC3
Duration: 1 h 30 min
Bit rate mode: Constant
Bit rate: 256 kb/s
Channel (s): 2 channels
Channel layout: L R
Sampling rate: 48.0 kHz
Frame rate: 31.250 FPS (1536 SPF)
Compression mode: Lossy
Stream size: 165 MiB (3%)
Title: AVO Василий Горчаков
Language: Russian
Service kind: Complete Main
Default: No
Forced: No

Audio #5
ID: 6
Format: AC-3
Format/Info: Audio Coding 3
Commercial name: Dolby Digital
Codec ID: A_AC3
Duration: 1 h 30 min
Bit rate mode: Constant
Bit rate: 256 kb/s
Channel (s): 2 channels
Channel layout: L R
Sampling rate: 48.0 kHz
Frame rate: 31.250 FPS (1536 SPF)
Compression mode: Lossy
Stream size: 165 MiB (3%)
Title: Original
Language: English
Service kind: Complete Main
Default: No
Forced: No

Text #1
ID: 7
Format: UTF-8
Codec ID: S_TEXT/UTF8
Codec ID/Info: UTF-8 Plain Text
Duration: 1 h 24 min
Bit rate: 64 b/s
Frame rate: 0.136 FPS
Count of elements: 691
Stream size: 39.9 KiB (0%)
Title: Full
Language: Russian
Default: No
Forced: No

Text #2
ID: 8
Format: UTF-8
Codec ID: S_TEXT/UTF8
Codec ID/Info: UTF-8 Plain Text
Duration: 1 h 24 min
Bit rate: 37 b/s
Frame rate: 0.190 FPS
Count of elements: 963
Stream size: 23.3 KiB (0%)
Title: Full
Language: English
Default: No
Forced: No

Text #3
ID: 9
Format: UTF-8
Codec ID: S_TEXT/UTF8
Codec ID/Info: UTF-8 Plain Text
Duration: 1 h 29 min
Bit rate: 43 b/s
Frame rate: 0.219 FPS
Count of elements: 1178
Stream size: 28.3 KiB (0%)
Title: SDH
Language: English
Default: No
Forced: No

Menu
00:00:00.000: en: Глава 01
00:09:19.250: en: Глава 02
00:15:47.666: en: Глава 03
00:23:42.458: en: Глава 04
00:31:03.041: en: Глава 05
00:39:14.416: en: Глава 06
00:46:26.708: en: Глава 07
00:52:57.125: en: Глава 08
01:00:57.875: en: Глава 09
01:06:26.208: en: Глава 10
01:13:43.333: en: Глава 11
01:19:11.041: en: Глава 12

Другие фильмы
Комментарии:

...
Rograr 1 марта 2023 21:55
0

В 1080р не будет? Устал я от мыльных картинок

Информация
Посетители, находящиеся в группе Гости, не могут оставлять комментарии к данной публикации.
Самый популярный релиз недели
Донаты
Мы в соц. сетях / RSS

Лучшие релизы месяца
Лучшие SD недели
Лучшие 720p недели
Лучшие 1080p недели
Лучшие 4K недели
Вы недавно смотрели
Реклама
Последние комментарии
...

rmzshka

15 мая 2024 13:43

...

Andrey_Vladimirovich

13 мая 2024 18:12

...

Robot

13 мая 2024 16:53

...

rmzshka

13 мая 2024 16:21

...

supermehanik

13 мая 2024 02:03

Реклама