+6

Призраки прошлого / Bed Rest (2022) WEB-DL 1080p от селезень | D

Информация о фильме
Название: Призраки прошлого
Оригинальное название: Bed Rest
Год выхода: 2022
Жанр: ужасы, драма
Режиссер: Лори Эванс Тейлор
В ролях: Мелисса Баррера, Гай Бернет, Эди Инксеттер, Себастьян Биллингсли-Родригес, Эрик Атхавале, Кристен Савацки, Коэн Шнайдерат, Пол Эссимбр, Марина Стивенсон Керр, Диана Ботельо-Урбански

О фильме: Когда-то Джулия потеряла ребенка. Горе и печаль чуть не свели ее с ума, но спустя много лет она снова готовится стать матерью. Чтобы роды прошли без инцидентов, врачи порекомендовали следовать двум простым правилам: соблюдать строгий постельный режим и избегать малейших стрессов. Но следовать этим указаниями в доме, где женщину преследуют призраки прошлого, оказывается, не так легко.

Страна: США
Студия: BondIt, Buffalo 8 Productions, Project X Entertainment
Продолжительность: 01:29:45
Перевод: Дублированный | Велес

Качество: WEB-DL 1080p
Видео: MPEG-4 AVC, 1920x1040, 4986 Kbit/s, 24.000 fps
Аудио: 48 kHz, AC3, 5.1, 384 Kbps | Дублированный | Велес | RUS |Призраки прошлого / Bed Rest (2022) WEB-DL 1080p от селезень | D
Субтитры: Отсутствуют

Призраки прошлого / Bed Rest (2022) WEB-DL 1080p от селезень | D

Авторизуйтесь для получения доступа к скачиванию

Нет аккаунта? Регистрация открыта и займёт меньше минуты

Вход Регистрация

General
Unique ID : 298500904714850939706944857412210932981 (0xE0912EDE713F58DA0A5441444AE23CF5)
Complete name : D:\VideoD\Bed.Rest.2022.WEB-DL.1080p.seleZen.mkv
Format : Matroska
Format version : Version 4
File size : 3.37 GiB
Duration : 1 h 29 min
Overall bit rate : 5 372 kb/s
Movie name : Bed Rest 2022 from seleZen
Encoded date : UTC 2023-01-25 21:46:21
Writing application : mkvmerge v59.0.0 ('Shining Star') 64-bit
Writing library : libebml v1.4.2 + libmatroska v1.6.4

Video
ID : 1
Format : AVC
Format/Info : Advanced Video Codec
Format profile : [email protected]
Format settings : CABAC / 3 Ref Frames
Format settings, CABAC : Yes
Format settings, Reference : 3 frames
Codec ID : V_MPEG4/ISO/AVC
Duration : 1 h 29 min
Bit rate : 4 986 kb/s
Width : 1 920 pixels
Height : 1 040 pixels
Display aspect ratio : 1.85:1
Frame rate mode : Constant
Frame rate : 24.000 FPS
Color space : YUV
Chroma subsampling : 4:2:0
Bit depth : 8 bits
Scan type : Progressive
Bits/(Pixel*Frame) : 0.104
Stream size : 3.13 GiB (93%)
Language : English
Default : Yes
Forced : No
Color range : Limited
Color primaries : BT.709
Transfer characteristics : BT.709
Matrix coefficients : BT.709

Audio
ID : 2
Format : AC-3
Format/Info : Audio Coding 3
Commercial name : Dolby Digital
Codec ID : A_AC3
Duration : 1 h 29 min
Bit rate mode : Constant
Bit rate : 384 kb/s
Channel(s) : 6 channels
Channel layout : L R C LFE Ls Rs
Sampling rate : 48.0 kHz
Frame rate : 31.250 FPS (1536 SPF)
Compression mode : Lossy
Stream size : 247 MiB (7%)
Language : Russian
Service kind : Complete Main
Default : Yes
Forced : Yes

Другие фильмы
У данной публикации пока нет комментариев.
Будь первым, оставь своё мнение в комментариях!
Информация
Посетители, находящиеся в группе Гости, не могут оставлять комментарии к данной публикации.
Самый популярный релиз недели

Кино копилка
...
Какую тему вы используете?

Реклама
Последние комментарии
...

sanders2

Вчера, 21:29

...

ivanfan1337

1 февраля 2023 12:49

...

Bhaar

30 января 2023 22:55

...

dembell56

29 января 2023 11:37

...

rmzshka

27 января 2023 14:23

Реклама