+3

Наша расплата / The Price We Pay (2022) WEB-DLRip-AVC от DoMiNo & селезень | P

Информация о фильме
Название: Наша расплата
Оригинальное название: The Price We Pay
Год выхода: 2022
Жанр: боевик, триллер
Режиссер: Рюхэй Китамура
В ролях: Эмиль Хирш, Гиги Зумбадо, Элинор Бурк, Стивен Дорфф, Эрика Эрвин, Джесси Кинсер, Сабина Мах, Кристофер Роблето, Тайлер Сандерс, Вернон Уэллс

О фильме:
После успешного ограбления ломбарда грабителям удаётся уехать из города, взяв в заложницы его сотрудницу. Скрываясь от преследования преступники и их жертва оказываются на удалённой ферме, где их встречает нечто гораздо более опасное, чем они сами.

Страна: США
Студия: 828 Productions, Buffalo 8 Productions, VMI Worldwide
Продолжительность: 01:25:15
Перевод: Профессиональный (многоголосый, закадровый) | LineFilm
Субтитры: Русские, английские
Внимание: присутствует ненормативная лексика!

Файл
Формат: Matroska
Качество: WEB-DLRip-AVC [исх.The.Price.We.Pay.2022.1080p.AMZN.WEB-DL.DDP5.1.H.264-FLUX]
Видео: 1024x426 at 23.976 fps, [email protected], ~1490 kbps
Аудио 1: AC3, 6 ch, ~448 kbps - | Русский | Наша расплата / The Price We Pay (2022) WEB-DLRip-AVC от DoMiNo & селезень | P
Аудио 2: AC3, 6 ch, ~384 kbps - | Английский |
Формат субтитров: softsub (SRT)

Авторизуйтесь для получения доступа к скачиванию

Нет аккаунта? Регистрация открыта и займёт меньше минуты

Вход Регистрация

x264 [info]: frame I:1081 Avg QP:13.99 size: 47724
x264 [info]: frame P:25937 Avg QP:15.48 size: 17056
x264 [info]: frame B:95640 Avg QP:17.94 size: 4801
x264 [info]: consecutive B-frames: 2.6% 1.8% 6.2% 21.4% 16.4% 33.5% 7.1% 4.9% 1.9% 0.8% 0.9% 0.7% 0.4% 0.8% 0.5%

General
Unique ID : 188663191441795108123826485221206875578 (0x8DEF357FB8F934BD4A71C303C1B15DBA)
Complete name : D:Новая папкаНаша расплата The Price We Pay (2022)The.Price.We.Pay.2022.AMZN.WEB-DLRip.x264.seleZen.mkv
Format : Matroska
Format version : Version 4
File size : 1.38 GiB
Duration : 1 h 25 min
Overall bit rate : 2 325 kb/s
Movie name : The.Price.We.Pay.2022.AMZN.WEB-DLRip.x264.seleZen
Encoded date : UTC 2023-01-24 17:21:12
Writing application : mkvmerge v73.0.0 ('25 or 6 to 4') 64-bit
Writing library : libebml v1.4.4 + libmatroska v1.7.1
Cover : Yes
Attachments : cover.jpg / small_cover.jpg

Video
ID : 1
Format : AVC
Format/Info : Advanced Video Codec
Format profile : [email protected]
Format settings : CABAC / 10 Ref Frames
Format settings, CABAC : Yes
Format settings, Reference : 10 frames
Codec ID : V_MPEG4/ISO/AVC
Duration : 1 h 25 min
Bit rate : 1 491 kb/s
Width : 1 024 pixels
Height : 426 pixels
Display aspect ratio : 2.40:1
Frame rate mode : Constant
Frame rate : 23.976 (24000/1001) FPS
Color space : YUV
Chroma subsampling : 4:2:0
Bit depth : 8 bits
Scan type : Progressive
Bits/(Pixel*Frame) : 0.143
Stream size : 909 MiB (64%)
Title : -=DoMiNo=-
Writing library : x264 core 164 by -=DoMiNo=-
Encoding settings : cabac=1 / ref=10 / deblock=1:-2:-1 / analyse=0x3:0x133 / me=umh / subme=10 / psy=1 / psy_rd=1.00:0.20 / mixed_ref=1 / me_range=32 / chroma_me=1 / trellis=2 / 8x8dct=1 / cqm=0 / deadzone=21,11 / fast_pskip=0 / chroma_qp_offset=-3 / threads=17 / lookahead_threads=3 / sliced_threads=0 / nr=0 / decimate=1 / interlaced=0 / bluray_compat=0 / constrained_intra=0 / bframes=14 / b_pyramid=2 / b_adapt=2 / b_bias=0 / direct=1 / weightb=1 / open_gop=0 / weightp=2 / keyint=240 / keyint_min=23 / scenecut=40 / intra_refresh=0 / rc=crf / mbtree=0 / crf=18.0 / qcomp=0.60 / qpmin=0 / qpmax=69 / qpstep=4 / ip_ratio=1.35 / pb_ratio=1.25 / aq=2:1.00
Language : English
Default : Yes
Forced : No
Color range : Limited
Matrix coefficients : BT.709

Audio #1
ID : 2
Format : AC-3
Format/Info : Audio Coding 3
Commercial name : Dolby Digital
Codec ID : A_AC3
Duration : 1 h 25 min
Bit rate mode : Constant
Bit rate : 448 kb/s
Channel(s) : 6 channels
Channel layout : L R C LFE Ls Rs
Sampling rate : 48.0 kHz
Frame rate : 31.250 FPS (1536 SPF)
Compression mode : Lossy
Stream size : 273 MiB (19%)
Title : MVO_[LineFilm]
Service kind : Complete Main
Default : Yes
Forced : No

Audio #2
ID : 3
Format : AC-3
Format/Info : Audio Coding 3
Commercial name : Dolby Digital
Codec ID : A_AC3
Duration : 1 h 25 min
Bit rate mode : Constant
Bit rate : 384 kb/s
Channel(s) : 6 channels
Channel layout : L R C LFE Ls Rs
Sampling rate : 48.0 kHz
Frame rate : 31.250 FPS (1536 SPF)
Compression mode : Lossy
Stream size : 234 MiB (17%)
Title : Original
Language : English
Service kind : Complete Main
Default : No
Forced : No

Text #1
ID : 4
Format : UTF-8
Codec ID : S_TEXT/UTF8
Codec ID/Info : UTF-8 Plain Text
Duration : 1 h 21 min
Bit rate : 68 b/s
Frame rate : 0.174 FPS
Count of elements : 847
Stream size : 41.0 KiB (0%)
Title : Full
Language : Russian
Default : No
Forced : No

Text #2
ID : 5
Format : UTF-8
Codec ID : S_TEXT/UTF8
Codec ID/Info : UTF-8 Plain Text
Duration : 1 h 20 min
Bit rate : 40 b/s
Frame rate : 0.175 FPS
Count of elements : 847
Stream size : 23.8 KiB (0%)
Title : Full
Language : English
Default : No
Forced : No[spoiler][/spoiler]

Другие фильмы
У данной публикации пока нет комментариев.
Будь первым, оставь своё мнение в комментариях!
Информация
Посетители, находящиеся в группе Гости, не могут оставлять комментарии к данной публикации.
Самый популярный релиз недели

Кино копилка
...
Какую тему вы используете?

Реклама
Последние комментарии
...

sanders2

Вчера, 21:29

...

ivanfan1337

1 февраля 2023 12:49

...

Bhaar

30 января 2023 22:55

...

dembell56

29 января 2023 11:37

...

rmzshka

27 января 2023 14:23

Реклама