+4

Последний рейс / Paradise Highway (2022) BDRemux 1080p от селезень | D

Информация о фильме
Название: Последний рейс
Оригинальное название: Paradise Highway
Год выхода: 2022
Жанр: триллер
Режиссер: Анна Гуттормсгард
В ролях: Жюльет Бинош, Фрэнк Грилло, Хала Финли, Камерон Монахэн, Вероника Феррес, Кристиана Сидел, Морган Фриман, Дезри Вуд, Дайэнн Макнэйр-Смит, Jaylen D. Eashmond

О фильме: Водитель грузовика Салли вынуждена заниматься контрабандой запрещенных грузов, чтобы спасти своего брата от смертельно опасной тюремной банды. Оперативники ФБР идут по ее следу, когда в последней посылке Салли обнаруживает девочку-подростка.

Страна: Германия, США, Швейцария
Студия: Praesens-Film, Silver Reel, ZDF Enterprises
Продолжительность: 01:54:43
Перевод: Дублированный | Велес

Качество: BDRemux 1080p
Видео: MPEG-4 AVC, 1920x1080, 27.0 Mbit/s, 23.976 fps
Аудио #01: 48 kHz, AC3, 5.1, 384 Kbps | Дублированный | Велес | RUS |Последний рейс / Paradise Highway (2022) BDRemux 1080p от селезень | D
Аудио #02: 48 kHz, DTS-HD MA, 5.1, 3542 Kbps | Оригинал | ENG |
Субтитры: Русские (Forced, full), английские

Последний рейс / Paradise Highway (2022) BDRemux 1080p от селезень | D

Авторизуйтесь для получения доступа к скачиванию

Нет аккаунта? Регистрация открыта и займёт меньше минуты

Вход Регистрация

General
Unique ID : 148596079817065335953635001611836287635 (0x6FCA906096AAB278B52321DA80F16A93)
Complete name : D:\VideoD\Paradise.Highway.2022.BDREMUX.1080p.seleZen.mkv
Format : Matroska
Format version : Version 4
File size : 24.8 GiB
Duration : 1 h 54 min
Overall bit rate mode : Variable
Overall bit rate : 30.9 Mb/s
Movie name : Paradise Highway 2022 from seleZen
Encoded date : UTC 2023-01-24 00:15:00
Writing application : mkvmerge v59.0.0 ('Shining Star') 64-bit
Writing library : libebml v1.4.2 + libmatroska v1.6.4

Video
ID : 1
Format : AVC
Format/Info : Advanced Video Codec
Format profile : [email protected]
Format settings : CABAC / 4 Ref Frames
Format settings, CABAC : Yes
Format settings, Reference : 4 frames
Codec ID : V_MPEG4/ISO/AVC
Duration : 1 h 54 min
Bit rate mode : Variable
Bit rate : 27.0 Mb/s
Maximum bit rate : 35.0 Mb/s
Width : 1 920 pixels
Height : 1 080 pixels
Display aspect ratio : 16:9
Frame rate mode : Constant
Frame rate : 23.976 (24000/1001) FPS
Standard : NTSC
Color space : YUV
Chroma subsampling : 4:2:0
Bit depth : 8 bits
Scan type : Progressive
Bits/(Pixel*Frame) : 0.543
Stream size : 21.6 GiB (87%)
Language : English
Default : Yes
Forced : No
Color range : Limited
Color primaries : BT.709
Transfer characteristics : BT.709
Matrix coefficients : BT.709

Audio #1
ID : 2
Format : AC-3
Format/Info : Audio Coding 3
Commercial name : Dolby Digital
Codec ID : A_AC3
Duration : 1 h 54 min
Bit rate mode : Constant
Bit rate : 384 kb/s
Channel(s) : 6 channels
Channel layout : L R C LFE Ls Rs
Sampling rate : 48.0 kHz
Frame rate : 31.250 FPS (1536 SPF)
Compression mode : Lossy
Stream size : 315 MiB (1%)
Title : Dub
Language : Russian
Service kind : Complete Main
Default : Yes
Forced : Yes

Audio #2
ID : 3
Format : DTS XLL
Format/Info : Digital Theater Systems
Commercial name : DTS-HD Master Audio
Codec ID : A_DTS
Duration : 1 h 54 min
Bit rate mode : Variable
Bit rate : 3 542 kb/s
Channel(s) : 6 channels
Channel layout : C L R Ls Rs LFE
Sampling rate : 48.0 kHz
Frame rate : 93.750 FPS (512 SPF)
Bit depth : 24 bits
Compression mode : Lossless
Stream size : 2.84 GiB (11%)
Title : Original
Language : English
Default : No
Forced : No

Text #1
ID : 4
Format : UTF-8
Codec ID : S_TEXT/UTF8
Codec ID/Info : UTF-8 Plain Text
Duration : 1 h 22 min
Bit rate : 0 b/s
Frame rate : 0.001 FPS
Count of elements : 6
Stream size : 274 Bytes (0%)
Title : Forced
Language : Russian
Default : Yes
Forced : Yes

Text #2
ID : 5
Format : UTF-8
Codec ID : S_TEXT/UTF8
Codec ID/Info : UTF-8 Plain Text
Duration : 1 h 48 min
Bit rate : 62 b/s
Frame rate : 0.162 FPS
Count of elements : 1054
Stream size : 49.5 KiB (0%)
Title : Full
Language : Russian
Default : No
Forced : No

Text #3
ID : 6
Format : UTF-8
Codec ID : S_TEXT/UTF8
Codec ID/Info : UTF-8 Plain Text
Duration : 1 h 48 min
Bit rate : 42 b/s
Frame rate : 0.156 FPS
Count of elements : 1014
Stream size : 34.0 KiB (0%)
Title : Full
Language : English
Default : No
Forced : No

Text #4
ID : 7
Format : UTF-8
Codec ID : S_TEXT/UTF8
Codec ID/Info : UTF-8 Plain Text
Duration : 1 h 52 min
Bit rate : 47 b/s
Frame rate : 0.180 FPS
Count of elements : 1218
Stream size : 39.3 KiB (0%)
Title : SDH
Language : English
Default : No
Forced : No

Menu
00:00:00.000 : en:Chapter 01
00:07:30.450 : en:Chapter 02
00:15:18.918 : en:Chapter 03
00:23:41.420 : en:Chapter 04
00:28:56.735 : en:Chapter 05
00:35:44.142 : en:Chapter 06
00:41:17.475 : en:Chapter 07
00:48:38.916 : en:Chapter 08
00:54:45.282 : en:Chapter 09
01:01:13.670 : en:Chapter 10
01:08:08.084 : en:Chapter 11
01:17:09.625 : en:Chapter 12
01:21:44.900 : en:Chapter 13
01:29:46.881 : en:Chapter 14
01:38:38.913 : en:Chapter 15
01:50:08.352 : en:Chapter 16

Другие фильмы
У данной публикации пока нет комментариев.
Будь первым, оставь своё мнение в комментариях!
Информация
Посетители, находящиеся в группе Гости, не могут оставлять комментарии к данной публикации.
Самый популярный релиз недели

Кино копилка
...
Какую тему вы используете?

Реклама
Последние комментарии
...

sanders2

Вчера, 21:29

...

ivanfan1337

1 февраля 2023 12:49

...

Bhaar

30 января 2023 22:55

...

dembell56

29 января 2023 11:37

...

rmzshka

27 января 2023 14:23

Реклама