+3

Последний рейс / Paradise Highway (2022) BDRip 720p от селезень | D

Информация о фильме
Название: Последний рейс
Оригинальное название: Paradise Highway
Год выхода: 2022
Жанр: триллер
Режиссер: Анна Гуттормсгард
В ролях: Жюльет Бинош, Фрэнк Грилло, Хала Финли, Камерон Монахэн, Вероника Феррес, Кристиана Сидел, Морган Фриман, Дезри Вуд, Дайэнн Макнэйр-Смит, Jaylen D. Eashmond

О фильме: Водитель грузовика Салли вынуждена заниматься контрабандой запрещенных грузов, чтобы спасти своего брата от смертельно опасной тюремной банды. Оперативники ФБР идут по ее следу, когда в последней посылке Салли обнаруживает девочку-подростка.

Страна: Германия, США, Швейцария
Студия: Praesens-Film, Silver Reel, ZDF Enterprises
Продолжительность: 01:54:43
Перевод: Дублированный | Велес

Качество: BDRip 720p
Видео: MPEG-4 AVC, 1280x536, 8763 Kbit/s, 23.976 fps
Аудио #01: 48 kHz, AC3, 5.1, 384 Kbps | Дублированный | Велес | RUS |Последний рейс / Paradise Highway (2022) BDRip 720p от селезень | D
Аудио #02: 48 kHz, AC3, 5.1, 640 Kbps | Оригинал | ENG |
Субтитры: Русские (Forced, full), английские

Последний рейс / Paradise Highway (2022) BDRip 720p от селезень | D

Авторизуйтесь для получения доступа к скачиванию

Нет аккаунта? Регистрация открыта и займёт меньше минуты

Вход Регистрация

General
Unique ID : 254342935448761752048515722211805632974 (0xBF58AAE4B701EC4404C0EA51373419CE)
Complete name : D:\VideoD\Paradise.Highway.2022.BDRip.720p.seleZen.mkv
Format : Matroska
Format version : Version 4
File size : 7.84 GiB
Duration : 1 h 54 min
Overall bit rate : 9 789 kb/s
Movie name : Paradise Highway 2022 from seleZen
Encoded date : UTC 2023-01-24 00:25:36
Writing application : mkvmerge v59.0.0 ('Shining Star') 64-bit
Writing library : libebml v1.4.2 + libmatroska v1.6.4

Video
ID : 1
Format : AVC
Format/Info : Advanced Video Codec
Format profile : [email protected]
Format settings : CABAC / 12 Ref Frames
Format settings, CABAC : Yes
Format settings, Reference : 12 frames
Codec ID : V_MPEG4/ISO/AVC
Duration : 1 h 54 min
Bit rate : 8 763 kb/s
Width : 1 280 pixels
Height : 536 pixels
Display aspect ratio : 2.40:1
Frame rate mode : Constant
Frame rate : 23.976 (24000/1001) FPS
Color space : YUV
Chroma subsampling : 4:2:0
Bit depth : 8 bits
Scan type : Progressive
Bits/(Pixel*Frame) : 0.533
Stream size : 7.02 GiB (90%)
Title : iFT
Writing library : x264 core 164 r3094+49M Encoded by Azevedo @ iFT
Encoding settings : cabac=1 / ref=12 / deblock=1:-3:-3 / analyse=0x3:0x113 / me=umh / subme=10 / psy=1 / fade_compensate=0.00 / psy_rd=1.05:0.00 / mixed_ref=1 / me_range=32 / chroma_me=1 / trellis=2 / 8x8dct=1 / cqm=0 / deadzone=21,11 / fast_pskip=0 / chroma_qp_offset=-2 / threads=17 / lookahead_threads=4 / sliced_threads=0 / nr=0 / decimate=0 / interlaced=0 / bluray_compat=0 / constrained_intra=0 / fgo=0 / bframes=14 / b_pyramid=2 / b_adapt=2 / b_bias=0 / direct=3 / weightb=1 / open_gop=0 / weightp=2 / keyint=250 / keyint_min=23 / scenecut=40 / intra_refresh=0 / rc_lookahead=60 / rc=crf / mbtree=0 / crf=16.1000 / qcomp=0.60 / qpmin=0:0:0 / qpmax=69:69:69 / qpstep=4 / vbv_maxrate=62500 / vbv_bufsize=78125 / crf_max=0.0 / nal_hrd=none / filler=0 / ip_ratio=1.30 / pb_ratio=1.20 / aq=3:0.80 / aq-sensitivity=10.00 / aq-factor=1.00:1.00:1.00 / aq2=0 / aq3=0 / zones=24,1104,crf=13/158303,165048,crf=20
Language : English
Default : Yes
Forced : No
Color range : Limited
Color primaries : BT.709
Transfer characteristics : BT.709
Matrix coefficients : BT.709

Audio #1
ID : 2
Format : AC-3
Format/Info : Audio Coding 3
Commercial name : Dolby Digital
Codec ID : A_AC3
Duration : 1 h 54 min
Bit rate mode : Constant
Bit rate : 384 kb/s
Channel(s) : 6 channels
Channel layout : L R C LFE Ls Rs
Sampling rate : 48.0 kHz
Frame rate : 31.250 FPS (1536 SPF)
Compression mode : Lossy
Stream size : 315 MiB (4%)
Title : Dub
Language : Russian
Service kind : Complete Main
Default : Yes
Forced : Yes

Audio #2
ID : 3
Format : AC-3
Format/Info : Audio Coding 3
Commercial name : Dolby Digital
Codec ID : A_AC3
Duration : 1 h 54 min
Bit rate mode : Constant
Bit rate : 640 kb/s
Channel(s) : 6 channels
Channel layout : L R C LFE Ls Rs
Sampling rate : 48.0 kHz
Frame rate : 31.250 FPS (1536 SPF)
Compression mode : Lossy
Stream size : 525 MiB (7%)
Title : Original
Language : English
Service kind : Complete Main
Default : No
Forced : No

Text #1
ID : 4
Format : UTF-8
Codec ID : S_TEXT/UTF8
Codec ID/Info : UTF-8 Plain Text
Duration : 1 h 22 min
Bit rate : 0 b/s
Frame rate : 0.001 FPS
Count of elements : 6
Stream size : 274 Bytes (0%)
Title : Forced
Language : Russian
Default : Yes
Forced : Yes

Text #2
ID : 5
Format : UTF-8
Codec ID : S_TEXT/UTF8
Codec ID/Info : UTF-8 Plain Text
Duration : 1 h 48 min
Bit rate : 62 b/s
Frame rate : 0.162 FPS
Count of elements : 1054
Stream size : 49.5 KiB (0%)
Title : Full
Language : Russian
Default : No
Forced : No

Text #3
ID : 6
Format : UTF-8
Codec ID : S_TEXT/UTF8
Codec ID/Info : UTF-8 Plain Text
Duration : 1 h 48 min
Bit rate : 42 b/s
Frame rate : 0.156 FPS
Count of elements : 1014
Stream size : 34.0 KiB (0%)
Title : Full
Language : English
Default : No
Forced : No

Text #4
ID : 7
Format : UTF-8
Codec ID : S_TEXT/UTF8
Codec ID/Info : UTF-8 Plain Text
Duration : 1 h 52 min
Bit rate : 47 b/s
Frame rate : 0.180 FPS
Count of elements : 1218
Stream size : 39.3 KiB (0%)
Title : SDH
Language : English
Default : No
Forced : No

Menu
00:00:00.000 : en:Chapter 01
00:07:30.450 : en:Chapter 02
00:15:18.918 : en:Chapter 03
00:23:41.420 : en:Chapter 04
00:28:56.735 : en:Chapter 05
00:35:44.142 : en:Chapter 06
00:41:17.475 : en:Chapter 07
00:48:38.916 : en:Chapter 08
00:54:45.282 : en:Chapter 09
01:01:13.670 : en:Chapter 10
01:08:08.084 : en:Chapter 11
01:17:09.625 : en:Chapter 12
01:21:44.900 : en:Chapter 13
01:29:46.881 : en:Chapter 14
01:38:38.913 : en:Chapter 15
01:50:08.352 : en:Chapter 16

Другие фильмы
У данной публикации пока нет комментариев.
Будь первым, оставь своё мнение в комментариях!
Информация
Посетители, находящиеся в группе Гости, не могут оставлять комментарии к данной публикации.
Самый популярный релиз недели

Кино копилка
...
Какую тему вы используете?

Реклама
Последние комментарии
...

sanders2

Вчера, 21:29

...

ivanfan1337

1 февраля 2023 12:49

...

Bhaar

30 января 2023 22:55

...

dembell56

29 января 2023 11:37

...

rmzshka

27 января 2023 14:23

Реклама