+13

Паранормальные явления. Дом призраков / Deadstream (2022) BDRip-AVC от DoMiNo & селезень | D

Информация о фильме
Название: Паранормальные явления. Дом призраков
Оригинальное название: Deadstream
Год выхода: 2022
Жанр: ужасы, комедия
Режиссер: Джозеф Винтер, Ванесса Винтер
В ролях: Джозеф Винтер, Мелани Стоун, Джейсон К. Уиксом, Пэт Барнетт, Марти Коллинз, Перла Лакайо, Силия Остин-Лакайо, Хейден Гэрайети, Эриэль Ли, Джексон Харкер

О фильме:
Когда-то Шон был популярным видеоблогером, сделавшим имя на экстремальных роликах, в которых он бросал вызов собственным страхам, но однажды вляпался в скандал и потерял всех спонсоров. Записав видео с извинениями и снова получив финансирование, парень возвращается с новым леденящим душу проектом. Шон собирается провести ночной стрим из дома с привидениями, где более 100 лет назад повесилась одинокая женщина, а после неоднократно фиксировалась паранормальная активность.

Выпущено: США / Winterspectre Entertainment, Jared R Cook Productions, Stonehaven Entertainment
Продолжительность: 01:27:36
Перевод: Дублированный | Paragraph Media
Субтитры: Русские (Forced, Full), Английские (Full)

Файл
Формат: Matroska
Качество: BDRip-AVC [исх.Deadstream.2022.MULTI.COMPLETE.BLURAY-FULLBRUTALiTY]
Видео: 1024x576 at 23.976 fps, [email protected], ~2951 kbps
Аудио 1: AC3, 6 ch, ~448 kbps - | Русский | Паранормальные явления. Дом призраков / Deadstream (2022) BDRip-AVC от DoMiNo & селезень | D
Аудио 2: AC3, 6 ch, ~448 kbps - | Английский |
Формат субтитров: softsub (SRT)

Авторизуйтесь для получения доступа к скачиванию

Нет аккаунта? Регистрация открыта и займёт меньше минуты

Вход Регистрация

General
Unique ID : 192860730426804822634147582299026020906 (0x9117A0262D5CC176684952D143FCDA2A)
Complete name : O:Deadstream.2022.BDRip.x264.seleZen.mkv
Format : Matroska
Format version : Version 4
File size : 2.36 GiB
Duration : 1 h 27 min
Overall bit rate : 3 849 kb/s
Frame rate : 23.976 FPS
Movie name : Deadstream.2022.BDRip.x264.seleZen
Encoded date : 2023-09-05 21:08:02 UTC
Writing application : mkvmerge v79.0 ('Funeral Pyres') 64-bit
Writing library : libebml v1.4.4 + libmatroska v1.7.1
Cover : Yes
Attachments : cover.jpg / small_cover.jpg

Video
ID : 1
Format : AVC
Format/Info : Advanced Video Codec
Format profile : [email protected]
Format settings : CABAC / 12 Ref Frames
Format settings, CABAC : Yes
Format settings, Reference : 12 frames
Codec ID : V_MPEG4/ISO/AVC
Duration : 1 h 27 min
Bit rate : 2 951 kb/s
Width : 1 024 pixels
Height : 576 pixels
Display aspect ratio : 16:9
Frame rate mode : Constant
Frame rate : 23.976 (24000/1001) FPS
Color space : YUV
Chroma subsampling : 4:2:0
Bit depth : 8 bits
Scan type : Progressive
Bits/(Pixel*Frame) : 0.209
Stream size : 1.81 GiB (77%)
Title : -=DoMiNo=-
Writing library : x264 core 164 r3107+58M ae98796 t_mod_New | by -=DoMiNo=- | X86_64]
Encoding settings : cabac=1 / ref=12 / deblock=1:-2:-2 / analyse=0x3:0x133 / me=umh / subme=10 / psy=1 / fade_compensate=0.00 / psy_rd=1.05:0.00 / mixed_ref=1 / me_range=40 / chroma_me=1 / trellis=2 / 8x8dct=1 / cqm=0 / deadzone=21,11 / fast_pskip=0 / chroma_qp_offset=-2 / threads=18 / lookahead_threads=4 / sliced_threads=0 / nr=0 / decimate=0 / interlaced=0 / bluray_compat=0 / constrained_intra=0 / fgo=0 / bframes=11 / b_pyramid=2 / b_adapt=2 / b_bias=0 / direct=1 / weightb=1 / open_gop=0 / weightp=2 / keyint=240 / keyint_min=24 / scenecut=40 / intra_refresh=0 / rc_lookahead=60 / rc=crf / mbtree=0 / crf=20.8000 / qcomp=0.70 / qpmin=0:0:0 / qpmax=69:69:69 / qpstep=4 / vbv_maxrate=50000 / vbv_bufsize=62500 / crf_max=0.0 / nal_hrd=none / filler=0 / ip_ratio=1.25 / pb_ratio=1.30 / aq=3:0.80 / aq-sensitivity=10.00 / aq-factor=1.00:1.00:1.00:1.00 / aq2=0 / aq3=0
Language : English
Default : Yes
Forced : No
Color range : Limited
Color primaries : BT.709
Transfer characteristics : BT.709
Matrix coefficients : BT.709

Audio #1
ID : 2
Format : AC-3
Format/Info : Audio Coding 3
Commercial name : Dolby Digital
Codec ID : A_AC3
Duration : 1 h 27 min
Bit rate mode : Constant
Bit rate : 448 kb/s
Channel(s) : 6 channels
Channel layout : L R C LFE Ls Rs
Sampling rate : 48.0 kHz
Frame rate : 31.250 FPS (1536 SPF)
Compression mode : Lossy
Stream size : 281 MiB (12%)
Title : Dub
Language : Russian
Service kind : Complete Main
Default : Yes
Forced : No

Audio #2
ID : 3
Format : AC-3
Format/Info : Audio Coding 3
Commercial name : Dolby Digital
Codec ID : A_AC3
Duration : 1 h 27 min
Bit rate mode : Constant
Bit rate : 448 kb/s
Channel(s) : 6 channels
Channel layout : L R C LFE Ls Rs
Sampling rate : 48.0 kHz
Frame rate : 31.250 FPS (1536 SPF)
Compression mode : Lossy
Stream size : 281 MiB (12%)
Title : Original
Language : English
Service kind : Complete Main
Default : No
Forced : No

Text #1
ID : 4
Format : UTF-8
Codec ID : S_TEXT/UTF8
Codec ID/Info : UTF-8 Plain Text
Duration : 1 h 25 min
Bit rate : 9 b/s
Frame rate : 0.024 FPS
Count of elements : 125
Stream size : 6.08 KiB (0%)
Title : Forced
Language : Russian
Default : Yes
Forced : No

Text #2
ID : 5
Format : UTF-8
Codec ID : S_TEXT/UTF8
Codec ID/Info : UTF-8 Plain Text
Duration : 1 h 24 min
Bit rate : 82 b/s
Frame rate : 0.198 FPS
Count of elements : 1006
Stream size : 51.1 KiB (0%)
Title : Full
Language : Russian
Default : No
Forced : No

Text #3
ID : 6
Format : UTF-8
Codec ID : S_TEXT/UTF8
Codec ID/Info : UTF-8 Plain Text
Duration : 1 h 24 min
Bit rate : 50 b/s
Frame rate : 0.205 FPS
Count of elements : 1037
Stream size : 31.2 KiB (0%)
Title : Full
Language : English
Default : No
Forced : No

Menu
00:00:00.000 : Глава 1
00:07:13.182 : Глава 2
00:14:23.404 : Глава 3
00:21:05.472 : Глава 4
00:28:41.261 : Глава 5
00:36:16.674 : Глава 6
00:42:23.207 : Глава 7
00:50:05.877 : Глава 8
00:57:44.586 : Глава 9
01:04:46.966 : Глава 10
01:11:27.533 : Глава 11
01:18:20.237 : Глава 12
01:24:44.412 : Глава 13
01:27:36.501 : Глава 14

Другие фильмы
Комментарии:

...
4yMoxog 7 января 2023 14:59
0

харош

Информация
Посетители, находящиеся в группе Гости, не могут оставлять комментарии к данной публикации.
Самый популярный релиз недели
Донаты
Мы в соц. сетях / RSS

Лучшие релизы месяца
Лучшие SD недели
Лучшие 720p недели
Лучшие 1080p недели
Лучшие 4K недели
Вы недавно смотрели
Реклама
Последние комментарии
...

rmzshka

15 мая 2024 13:43

...

Andrey_Vladimirovich

13 мая 2024 18:12

...

Robot

13 мая 2024 16:53

...

rmzshka

13 мая 2024 16:21

...

supermehanik

13 мая 2024 02:03

Реклама