+14

Децибел / Desibel / Decibel (2022) BDRip 720p от DoMiNo & селезень | D, A

Информация о фильме
Название: Децибел
Оригинальное название: Desibel / Decibel
Год выпуска: 2022
Жанр: боевик, триллер, детектив
Режиссер: Хван Ин Хо / Hwang In Ho
В ролях: Ким Рэ-вон, Ли Джон-сок, Чон Сан-хун, Пак Пён-ын, Ли Сан-хи, Чо Даль-хван, Чха Ын-у, Ли Мин-ги, Хан Мин-ёп, У Джи-хён

О фильме:
Бывший лейтенант Кан До-ён страдает ПТСР, вызванным аварией на подводной лодке, в которой он потерял своих коллег. Несмотря на то, что его почитают как национального героя, он чувствует себя виноватым. Однажды До-ён получает телефонный звонок от незнакомца, который угрожает взорвать футбольный стадион с помощью самодельной взрывчатки, срабатывающей при определенном уровне шума. Корейский боевик о моральном выборе.

Выпущено: Южная Корея, East Dream Synopex, Megabox Plus M
Продолжительность: 01:50:01
Перевод 1: Дублированный | Позитив
Перевод 2: Авторский (одноголосый, закадровый) | Ю. Сербин
Субтитры: Русские (Full), английские, корейские (SDH)

Файл
Формат: Matroska
Качество: BDRip 720p
Видео: 1280x536 at 23.976 fps, [email protected], ~4938 kbps
Аудио 1: AC3, 6 ch, ~448 kbps - | Русский | Децибел / Desibel / Decibel (2022) BDRip 720p от DoMiNo & селезень | D, A | Позитив
Аудио 2: E-AC3, 6 ch, ~448 kbps - | Русский | | Позитив
Аудио 3: AC3, 2 ch, ~192 kbps - | Русский | | Ю. Сербин
Аудио 4: AC3, 6 ch, ~448 kbps - | Корейский | Original
Формат субтитров: softsub (SRT)

Авторизуйтесь для получения доступа к скачиванию

Нет аккаунта? Регистрация открыта и займёт меньше минуты

Вход Регистрация

x264 [info]: frame I:935 Avg QP:17.14 size: 77300
x264 [info]: frame P:33059 Avg QP:18.78 size: 40922
x264 [info]: frame B:124287 Avg QP:20.73 size: 21319

General
Unique ID : 335416201323811757072936655629827058373 (0xFC56CF833BC842E5E9BECCB992F62AC5)
Complete name : S:Desibel.2022.BDRip.720p.x264.seleZen.mkv
Format : Matroska
Format version : Version 4
File size : 4.98 GiB
Duration : 1 h 50 min
Overall bit rate : 6 477 kb/s
Frame rate : 23.976 FPS
Movie name : Desibel.2022.BDRip.720p.x264.seleZen
Encoded date : 2023-09-11 09:26:27 UTC
Writing application : mkvmerge v79.0 ('Funeral Pyres') 64-bit
Writing library : libebml v1.4.4 + libmatroska v1.7.1
Cover : Yes
Attachments : cover.jpg / small_cover.jpg

Video
ID : 1
Format : AVC
Format/Info : Advanced Video Codec
Format profile : [email protected]
Format settings : CABAC / 12 Ref Frames
Format settings, CABAC : Yes
Format settings, Reference : 12 frames
Codec ID : V_MPEG4/ISO/AVC
Duration : 1 h 50 min
Bit rate : 4 938 kb/s
Width : 1 280 pixels
Height : 536 pixels
Display aspect ratio : 2.40:1
Frame rate mode : Constant
Frame rate : 23.976 (24000/1001) FPS
Color space : YUV
Chroma subsampling : 4:2:0
Bit depth : 8 bits
Scan type : Progressive
Bits/(Pixel*Frame) : 0.300
Stream size : 3.79 GiB (76%)
Title : -=DoMiNo=-
Writing library : x264 core 164 r3107+58M ae98796 t_mod_New | by -=DoMiNo=- | X86_64]
Encoding settings : cabac=1 / ref=12 / deblock=1:-2:-2 / analyse=0x3:0x133 / me=umh / subme=10 / psy=1 / fade_compensate=0.00 / psy_rd=1.05:0.03 / mixed_ref=1 / me_range=40 / chroma_me=1 / trellis=2 / 8x8dct=1 / cqm=0 / deadzone=21,11 / fast_pskip=0 / chroma_qp_offset=-3 / threads=17 / lookahead_threads=4 / sliced_threads=0 / nr=0 / decimate=1 / interlaced=0 / bluray_compat=0 / constrained_intra=0 / fgo=0 / bframes=16 / b_pyramid=2 / b_adapt=2 / b_bias=0 / direct=3 / weightb=1 / open_gop=0 / weightp=2 / keyint=240 / keyint_min=24 / scenecut=40 / intra_refresh=0 / rc_lookahead=60 / rc=crf / mbtree=0 / crf=20.0000 / qcomp=0.60 / qpmin=0:0:0 / qpmax=69:69:69 / qpstep=4 / vbv_maxrate=50000 / vbv_bufsize=62500 / crf_max=0.0 / nal_hrd=none / filler=0 / ip_ratio=1.32 / pb_ratio=1.25 / aq=3:0.80 / aq-sensitivity=10.00 / aq-factor=1.00:1.00:1.00:1.00 / aq2=0 / aq3=0
Language : Korean
Default : Yes
Forced : No

Audio #1
ID : 2
Format : AC-3
Format/Info : Audio Coding 3
Commercial name : Dolby Digital
Codec ID : A_AC3
Duration : 1 h 50 min
Bit rate mode : Constant
Bit rate : 448 kb/s
Channel(s) : 6 channels
Channel layout : L R C LFE Ls Rs
Sampling rate : 48.0 kHz
Frame rate : 31.250 FPS (1536 SPF)
Compression mode : Lossy
Stream size : 353 MiB (7%)
Title : DUB Позитив
Language : Russian
Service kind : Complete Main
Default : Yes
Forced : No

Audio #2
ID : 3
Format : E-AC-3
Format/Info : Enhanced AC-3
Commercial name : Dolby Digital Plus
Codec ID : A_EAC3
Duration : 1 h 50 min
Bit rate mode : Constant
Bit rate : 448 kb/s
Channel(s) : 6 channels
Channel layout : L R C LFE Ls Rs
Sampling rate : 48.0 kHz
Frame rate : 31.250 FPS (1536 SPF)
Compression mode : Lossy
Stream size : 353 MiB (7%)
Title : DUB Позитив
Language : Russian
Service kind : Complete Main
Default : No
Forced : No

Audio #3
ID : 4
Format : AC-3
Format/Info : Audio Coding 3
Commercial name : Dolby Digital
Codec ID : A_AC3
Duration : 1 h 50 min
Bit rate mode : Constant
Bit rate : 192 kb/s
Channel(s) : 2 channels
Channel layout : L R
Sampling rate : 48.0 kHz
Frame rate : 31.250 FPS (1536 SPF)
Compression mode : Lossy
Stream size : 151 MiB (3%)
Title : AVO Юрий Сербин
Language : Russian
Service kind : Complete Main
Default : No
Forced : No

Audio #4
ID : 5
Format : AC-3
Format/Info : Audio Coding 3
Commercial name : Dolby Digital
Codec ID : A_AC3
Duration : 1 h 50 min
Bit rate mode : Constant
Bit rate : 448 kb/s
Channel(s) : 6 channels
Channel layout : L R C LFE Ls Rs
Sampling rate : 48.0 kHz
Frame rate : 31.250 FPS (1536 SPF)
Compression mode : Lossy
Stream size : 353 MiB (7%)
Title : Original
Language : Korean
Service kind : Complete Main
Default : No
Forced : No

Text #1
ID : 6
Format : UTF-8
Codec ID : S_TEXT/UTF8
Codec ID/Info : UTF-8 Plain Text
Duration : 1 h 42 min
Bit rate : 72 b/s
Frame rate : 0.165 FPS
Count of elements : 1013
Stream size : 54.5 KiB (0%)
Title : Full
Language : Russian
Default : No
Forced : No

Text #2
ID : 7
Format : UTF-8
Codec ID : S_TEXT/UTF8
Codec ID/Info : UTF-8 Plain Text
Duration : 1 h 42 min
Bit rate : 42 b/s
Frame rate : 0.200 FPS
Count of elements : 1225
Stream size : 31.5 KiB (0%)
Title : Full
Language : English
Default : No
Forced : No

Text #3
ID : 8
Format : UTF-8
Codec ID : S_TEXT/UTF8
Codec ID/Info : UTF-8 Plain Text
Duration : 1 h 45 min
Bit rate : 91 b/s
Frame rate : 0.305 FPS
Count of elements : 1940
Stream size : 70.7 KiB (0%)
Title : SDH
Language : Korean
Default : No
Forced : No

Menu
00:00:00.000 : en:Chapter 01
00:08:00.397 : en:Chapter 02
00:18:47.126 : en:Chapter 03
00:28:40.177 : en:Chapter 04
00:37:01.803 : en:Chapter 05
00:49:41.812 : en:Chapter 06
00:58:42.561 : en:Chapter 07
01:07:00.558 : en:Chapter 08
01:15:43.205 : en:Chapter 09
01:25:34.588 : en:Chapter 10
01:34:25.285 : en:Chapter 11
01:43:29.078 : en:Chapter 12

Другие фильмы
У данной публикации пока нет комментариев.
Будь первым, оставь своё мнение в комментариях!
Информация
Посетители, находящиеся в группе Гости, не могут оставлять комментарии к данной публикации.
Самый популярный релиз недели
Донаты
Мы в соц. сетях / RSS

Лучшие релизы месяца
Лучшие SD недели
Лучшие 720p недели
Лучшие 1080p недели
Лучшие 4K недели
Вы недавно смотрели
Реклама
Последние комментарии
...

Bonzo

14 июня 2024 14:52

...

rmzshka

13 июня 2024 17:48

...

rmzshka

13 июня 2024 12:24

...

LisNick

13 июня 2024 08:45

...

SkySpirit

8 июня 2024 19:54

Реклама