+4

Актриса тысячелетия / Sennen joyû / Millennium Actress (2001) UHD BDRemux 2160p от селезень | 4K | SDR | P

Информация о фильме
Название: Актриса тысячелетия
Оригинальное название: Sennen joyû
Год выхода: 2001
Жанр: аниме, мультфильм, драма, мелодрама
Режиссер: Сатоси Кон
В ролях: Миёко Сёдзи, Мами Кояма, Фумико Орикаса, Сёдзо Идзука, Сёко Цуда, Хиротака Судзуоки, Хисако Кёда, Кан Токумару, Томиэ Катаока, Такко Исимори

О фильме: Десятилетиями Тиёко Фудзивара была выдающейся актрисой, снимавшейся в фильмах различных жанров. Однажды к ней в высокогорную виллу приезжают продюсер и хроникер, работающий над историей жизни и карьеры Тиёко. Он принес с собой маленький старый ключик, открывший многие тайны ее воспоминаний.

Страна: Япония
Студия: Bandai Visual Co. Ltd., Chiyoko Commitee, Genco Inc., Kadokawa Shoten Publishing Co. Ltd., Mad House Ltd., WoWow Inc.
Продолжительность: 01:26:18
Перевод: Профессиональный многоголосый | MC Entertainment

Качество: BDRemux 2160p
Видео: 3840x2160 at 24.000 fps, MPEG-H HEVC SDR ~ 48900 kbps avg
Аудио #01: 48 kHz, AC3, 5.1, 384 Kbps | Профессиональный многоголосый | MC Entertainment | RUS |Актриса тысячелетия / Sennen joyû / Millennium Actress (2001) UHD BDRemux 2160p от селезень | 4K | SDR | P
Аудио #02: 48 kHz, DTS-HD MA, 5.1, 3780 Kbps | Оригинал | JPN |
Аудио #03: 48 kHz, DTS-HD MA, 5.1, 3393 Kbps | ENG |
Субтитры: Русские (Full), английские

Актриса тысячелетия / Sennen joyû / Millennium Actress (2001) UHD BDRemux 2160p от селезень | 4K | SDR | P

Авторизуйтесь для получения доступа к скачиванию

Нет аккаунта? Регистрация открыта и займёт меньше минуты

Вход Регистрация

General
Unique ID : 248709140458063375957640628604107068694 (0xBB1BA35ADB15DC7FDFFBB482C8F59516)
Complete name : D:\VideoD\Millennium.Actress.2001.BDREMUX.2160p.SDR.seleZen.mkv
Format : Matroska
Format version : Version 4
File size : 34.0 GiB
Duration : 1 h 26 min
Overall bit rate mode : Variable
Overall bit rate : 56.4 Mb/s
Movie name : Sennen Joyuu a.k.a Millennium Actress 2001 from seleZen
Encoded date : UTC 2022-12-07 20:49:18
Writing application : mkvmerge v59.0.0 ('Shining Star') 64-bit
Writing library : libebml v1.4.2 + libmatroska v1.6.4

Video
ID : 1
Format : HEVC
Format/Info : High Efficiency Video Coding
Format profile : Main [email protected]@High
Codec ID : V_MPEGH/ISO/HEVC
Duration : 1 h 26 min
Bit rate : 48.9 Mb/s
Width : 3 840 pixels
Height : 2 160 pixels
Display aspect ratio : 16:9
Frame rate mode : Constant
Frame rate : 24.000 FPS
Color space : YUV
Chroma subsampling : 4:2:0 (Type 2)
Bit depth : 10 bits
Bits/(Pixel*Frame) : 0.245
Stream size : 29.5 GiB (87%)
Writing library : x265 2.6:[Linux][GCC 7.2.0][64 bit] 10bit
Encoding settings : cpuid=1173503 / frame-threads=6 / numa-pools=64 / wpp / no-pmode / no-pme / no-psnr / no-ssim / log-level=2 / input-csp=1 / input-res=3840x2160 / interlace=0 / total-frames=0 / level-idc=51 / high-tier=1 / uhd-bd=1 / ref=4 / no-allow-non-conformance / repeat-headers / annexb / aud / hrd / info / hash=0 / no-temporal-layers / no-open-gop / min-keyint=1 / keyint=24 / bframes=3 / b-adapt=2 / b-pyramid / bframe-bias=0 / rc-lookahead=24 / lookahead-slices=4 / scenecut=40 / no-intra-refresh / ctu=64 / min-cu-size=8 / rect / no-amp / max-tu-size=32 / tu-inter-depth=1 / tu-intra-depth=1 / limit-tu=0 / rdoq-level=2 / dynamic-rd=0.00 / no-ssim-rd / signhide / no-tskip / nr-intra=0 / nr-inter=0 / no-constrained-intra / strong-intra-smoothing / max-merge=3 / limit-refs=3 / limit-modes / me=3 / subme=3 / merange=57 / temporal-mvp / weightp / no-weightb / no-analyze-src-pics / deblock=0:0 / sao / no-sao-non-deblock / rd=4 / no-early-skip / rskip / no-fast-intra / no-tskip-fast / no-cu-lossless / no-b-intra / no-splitrd-skip / rdpenalty=0 / psy-rd=2.00 / psy-rdoq=1.00 / no-rd-refine / analysis-reuse-mode=0 / no-lossless / cbqpoffs=0 / crqpoffs=0 / rc=abr / bitrate=50000 / qcomp=0.60 / qpstep=4 / stats-write=0 / stats-read=0 / vbv-maxrate=75000 / vbv-bufsize=65000 / vbv-init=0.9 / ipratio=1.40 / pbratio=1.30 / aq-mode=1 / aq-strength=1.00 / cutree / zone-count=0 / no-strict-cbr / qg-size=32 / no-rc-grain / qpmax=69 / qpmin=0 / no-const-vbv / sar=1 / overscan=0 / videoformat=5 / range=0 / colorprim=1 / transfer=1 / colormatrix=1 / chromaloc=1 / chromaloc-top=2 / chromaloc-bottom=2 / display-window=0 / max-cll=0,0 / min-luma=0 / max-luma=1023 / log2-max-poc-lsb=8 / vui-timing-info / vui-hrd-info / slices=1 / no-opt-qp-pps / no-opt-ref-list-length-pps / no-multi-pass-opt-rps / scenecut-bias=0.05 / no-opt-cu-delta-qp / no-aq-motion / no-hdr / no-hdr-opt / no-dhdr10-opt / analysis-reuse-level=5 / scale-factor=0 / refine-intra=0 / refine-inter=0 / refine-mv=0 / no-limit-sao / ctu-info=0 / no-lowpass-dct / refine-mv-type=0 / copy-pic=1
Language : English
Default : Yes
Forced : No
Color range : Limited
Color primaries : BT.709
Transfer characteristics : BT.709
Matrix coefficients : BT.709

Audio #1
ID : 2
Format : AC-3
Format/Info : Audio Coding 3
Commercial name : Dolby Digital
Codec ID : A_AC3
Duration : 1 h 26 min
Bit rate mode : Constant
Bit rate : 384 kb/s
Channel(s) : 6 channels
Channel layout : L R C LFE Ls Rs
Sampling rate : 48.0 kHz
Frame rate : 31.250 FPS (1536 SPF)
Compression mode : Lossy
Stream size : 237 MiB (1%)
Title : MVO [MC Entertainment]
Language : Russian
Service kind : Complete Main
Default : Yes
Forced : Yes

Audio #2
ID : 3
Format : DTS XLL
Format/Info : Digital Theater Systems
Commercial name : DTS-HD Master Audio
Codec ID : A_DTS
Duration : 1 h 26 min
Bit rate mode : Variable
Bit rate : 3 780 kb/s
Channel(s) : 6 channels
Channel layout : C L R Ls Rs LFE
Sampling rate : 48.0 kHz
Frame rate : 93.750 FPS (512 SPF)
Bit depth : 24 bits
Compression mode : Lossless
Stream size : 2.28 GiB (7%)
Title : Original
Language : Japanese
Default : No
Forced : No

Audio #3
ID : 4
Format : DTS XLL
Format/Info : Digital Theater Systems
Commercial name : DTS-HD Master Audio
Codec ID : A_DTS
Duration : 1 h 26 min
Bit rate mode : Variable
Bit rate : 3 393 kb/s
Channel(s) : 6 channels
Channel layout : C L R Ls Rs LFE
Sampling rate : 48.0 kHz
Frame rate : 93.750 FPS (512 SPF)
Bit depth : 24 bits
Compression mode : Lossless
Stream size : 2.05 GiB (6%)
Language : English
Default : No
Forced : No

Text #1
ID : 5
Format : UTF-8
Codec ID : S_TEXT/UTF8
Codec ID/Info : UTF-8 Plain Text
Duration : 1 h 25 min
Bit rate : 65 b/s
Frame rate : 0.160 FPS
Count of elements : 817
Stream size : 40.6 KiB (0%)
Title : Full
Language : Russian
Default : No
Forced : No

Text #2
ID : 6
Format : UTF-8
Codec ID : S_TEXT/UTF8
Codec ID/Info : UTF-8 Plain Text
Duration : 1 h 21 min
Bit rate : 34 b/s
Frame rate : 0.186 FPS
Count of elements : 906
Stream size : 20.6 KiB (0%)
Title : Full
Language : English
Default : No
Forced : No

Menu
00:00:00.000 : Глава 01
00:05:36.667 : Глава 02
00:11:40.958 : Глава 03
00:17:14.500 : Глава 04
00:24:59.875 : Глава 05
00:32:25.500 : Глава 06
00:37:46.000 : Глава 07
00:44:14.375 : Глава 08
00:54:37.042 : Глава 09
01:03:40.125 : Глава 10
01:12:43.667 : Глава 11
01:19:08.667 : Глава 12

Другие фильмы
У данной публикации пока нет комментариев.
Будь первым, оставь своё мнение в комментариях!
Информация
Посетители, находящиеся в группе Гости, не могут оставлять комментарии к данной публикации.
Самый популярный релиз недели

Кино копилка
...
Какую тему вы используете?

Реклама
Последние комментарии
...

sanders2

Вчера, 21:29

...

ivanfan1337

1 февраля 2023 12:49

...

Bhaar

30 января 2023 22:55

...

dembell56

29 января 2023 11:37

...

rmzshka

27 января 2023 14:23

Реклама