+6

Мой домашний крокодил / Lyle, Lyle, Crocodile (2022) WEB-DLRip-AVC от DoMiNo & селезень | P | Jaskier

Информация о фильме
Название: Мой домашний крокодил
Оригинальное название: Lyle, Lyle, Crocodile
Год выпуска: 2022
Жанр: Комедия, фэнтези, мюзикл, семейный
Режиссёр: Джош Гордон, Уилл Спек
В ролях: Хавьер Бардем, Уинслоу Фегли, Шон Мендес, Констанс Ву, Скут МакНэри, Бретт Гельман, Эго Нводим, Лайрик Херд, Джейсон Кравиц, Бен Палашиос, Сэл Вискузо, Адам Мюррэй, Мэри Нили, Дон ДиПетта, Линдси Мосер, Мэттью Риш, Клэйтон Инглиш, Мэтт Уилкас, Лорен Бойд, Анджела Дэвис, Тейлор Джеймс, Аль Томпсон

Описание:
Семья Примм переезжает в Нью-Йорк, где выясняется, что в их доме на чердаке живёт поющий крокодил Лайл. Лайл помогает адаптироваться после переезда маленькому Джошу Примму. Но злобный сосед мистер Грампс хочет, чтобы зверя изолировали от людей.

Страна: США
Студия: Eagle Pictures, Hutch Parker Entertainment, Sony Pictures Entertainment, Speck & Gordon, TSG Entertainment
Продолжительность: 01:46:37
Перевод: Профессиональный (многоголосый закадровый) Jaskier
Субтитры: Русские (Full-Яндекс-переводчик), английские (Full, SDH)

Файл
Формат: Matroska
Качество: WEB-DLRip-AVC (исх.WEB-DL-HEVC 2160p)
Видео: 1024×428 at 23.976 fps, [email protected], ~1597 kbps
Аудио 1: AC3, 6 ch, ~448 kbps — | Русский | Мой домашний крокодил / Lyle, Lyle, Crocodile (2022) WEB-DLRip-AVC от DoMiNo & селезень | P | Jaskier
Аудио 2: AC3, 6 ch, ~448 kbps — | Английский |
Формат субтитров: softsub (SRT)

Мой домашний крокодил / Lyle, Lyle, Crocodile (2022) WEB-DLRip-AVC от DoMiNo & селезень | P | Jaskier

Авторизуйтесь для получения доступа к скачиванию

Нет аккаунта? Регистрация открыта и займёт меньше минуты

Вход Регистрация

x264 [info]: frame I:1247 Avg QP:13.54 size: 52225
x264 [info]: frame P:35696 Avg QP:15.21 size: 17454
x264 [info]: frame B:116442 Avg QP:18.14 size: 5056
x264 [info]: consecutive B-frames: 2,5% 3,2% 9,4% 30,6% 17,8% 27,8% 2,5% 2,4% 0,7% 2,6% 0,2% 0,2% 0,1%

General
Unique ID : 127275528368878375438537681872802549134 (0×5FC06008584B10DCE6BAF567B6080D8E)
Complete name : K:Lyle,Lyle,Crocodile.2022.WEB-DLRip.x264.seleZen.mkv
Format : Matroska
Format version : Version 4
File size : 1.86 GiB
Duration : 1 h 46 min
Overall bit rate : 2 495 kb/s
Movie name : Lyle,Lyle,Crocodile.2022.WEB-DLRip.x264.seleZen
Encoded date : UTC 08.12.2022 10:14:26
Writing application : mkvmerge v72.0.0 ('Minuano (Six-eight)') 64-bit
Writing library : libebml v1.4.4 + libmatroska v1.7.1
Cover : Yes
Attachments : cover.jpg / small_cover.jpg

Video
ID : 1
Format : AVC
Format/Info : Advanced Video Codec
Format profile : [email protected]
Format settings : CABAC / 12 Ref Frames
Format settings, CABAC : Yes
Format settings, Reference : 12 frames
Codec ID : V_MPEG4/ISO/AVC
Duration : 1 h 46 min
Bit rate : 1 597 kb/s
Width : 1 024 pixels
Height : 428 pixels
Display aspect ratio : 2.40:1
Frame rate mode : Constant
Frame rate : 23.976 (24000/1001) FPS
Color space : YUV
Chroma subsampling : 4:2:0
Bit depth : 8 bits
Scan type : Progressive
Bits/(Pixel*Frame) : 0.152
Stream size : 1.19 GiB (64%)
Title : -=DoMiNo=-
Writing library : x264 core 164 r3099+55M 141af3f t_mod_New | by -=DoMiNo=- | X86_64
Encoding settings : cabac=1 / ref=12 / deblock=1:-3:-2 / analyse=0×3:0×133 / me=umh / subme=10 / psy=1 / fade_compensate=0.00 / psy_rd=1.10:0.00 / mixed_ref=1 / me_range=32 / chroma_me=1 / trellis=2 / 8×8dct=1 / cqm=0 / deadzone=21,11 / fast_pskip=0 / chroma_qp_offset=-2 / threads=17 / lookahead_threads=3 / sliced_threads=0 / nr=0 / decimate=1 / interlaced=0 / bluray_compat=0 / constrained_intra=0 / fgo=0 / bframes=12 / b_pyramid=2 / b_adapt=2 / b_bias=0 / direct=1 / weightb=1 / open_gop=0 / weightp=2 / keyint=250 / keyint_min=23 / scenecut=40 / intra_refresh=0 / rc_lookahead=60 / rc=crf / mbtree=0 / crf=17.0000 / qcomp=0.65 / qpmin=0:0:0 / qpmax=69:69:69 / qpstep=4 / vbv_maxrate=50000 / vbv_bufsize=62500 / crf_max=0.0 / nal_hrd=none / filler=0 / ip_ratio=1.35 / pb_ratio=1.25 / aq=3:0.80 / aq-sensitivity=10.00 / aq-factor=1.00:1.00:1.00 / aq2=0 / aq3=0
Language : English
Default : Yes
Forced : No
Color range : Limited
Matrix coefficients : BT.709

Audio #1
ID : 2
Format : AC-3
Format/Info : Audio Coding 3
Commercial name : Dolby Digital
Codec ID : A_AC3
Duration : 1 h 46 min
Bit rate mode : Constant
Bit rate : 448 kb/s
Channel (s) : 6 channels
Channel layout : L R C LFE Ls Rs
Sampling rate : 48.0 kHz
Frame rate : 31.250 FPS (1536 SPF)
Compression mode : Lossy
Stream size : 342 MiB (18%)
Title : MVO_[Jaskier]
Language : Russian
Service kind : Complete Main
Default : Yes
Forced : Yes

Audio #2
ID : 3
Format : AC-3
Format/Info : Audio Coding 3
Commercial name : Dolby Digital
Codec ID : A_AC3
Duration : 1 h 46 min
Bit rate mode : Constant
Bit rate : 448 kb/s
Channel (s) : 6 channels
Channel layout : L R C LFE Ls Rs
Sampling rate : 48.0 kHz
Frame rate : 31.250 FPS (1536 SPF)
Compression mode : Lossy
Stream size : 342 MiB (18%)
Title : Original
Language : English
Service kind : Complete Main
Default : No
Forced : No

Text #1
ID : 4
Format : UTF-8
Codec ID : S_TEXT/UTF8
Codec ID/Info : UTF-8 Plain Text
Duration : 1 h 38 min
Bit rate : 97 b/s
Count of elements : 1249
Stream size : 70.7 KiB (0%)
Title : Full
Language : Russian
Default : No
Forced : No

Text #2
ID : 5
Format : UTF-8
Codec ID : S_TEXT/UTF8
Codec ID/Info : UTF-8 Plain Text
Duration : 1 h 38 min
Bit rate : 51 b/s
Count of elements : 1249
Stream size : 37.5 KiB (0%)
Title : British
Language : English
Default : No
Forced : No

Text #3
ID : 6
Format : UTF-8
Codec ID : S_TEXT/UTF8
Codec ID/Info : UTF-8 Plain Text
Duration : 1 h 44 min
Bit rate : 68 b/s
Count of elements : 1703
Stream size : 52.2 KiB (0%)
Title : SDH
Language : English
Default : No
Forced : No

Menu
00:00:00.000 : en:Chapter 01
00:05:30.205 : en:Chapter 02
00:12:30.166 : en:Chapter 03
00:19:28.960 : en:Chapter 04
00:25:47.047 : en:Chapter 05
00:32:14.392 : en:Chapter 06
00:38:41.112 : en:Chapter 07
00:46:31.875 : en:Chapter 08
00:52:39.200 : en:Chapter 09
00:59:03.418 : en:Chapter 10
01:05:06.031 : en:Chapter 11
01:11:06.474 : en:Chapter 12
01:18:27.040 : en:Chapter 13
01:26:05.915 : en:Chapter 14
01:30:00.900 : en:Chapter 15
01:38:56.644 : en:Chapter 16

Другие фильмы
У данной публикации пока нет комментариев.
Будь первым, оставь своё мнение в комментариях!
Информация
Посетители, находящиеся в группе Гости, не могут оставлять комментарии к данной публикации.
Самый популярный релиз недели

Кино копилка
...
Какую тему вы используете?

Реклама
Последние комментарии
...

sanders2

Вчера, 21:29

...

ivanfan1337

1 февраля 2023 12:49

...

Bhaar

30 января 2023 22:55

...

dembell56

29 января 2023 11:37

...

rmzshka

27 января 2023 14:23

Реклама