+5

Амстердам / Amsterdam (2022) BDRip-AVC от DoMiNo & селезень | D, P, A

Информация о фильме
Название: Амстердам
Оригинальное название: Amsterdam
Год выпуска: 2022
Жанр: Комедия, детектив, история
Режиссер: Дэвид О. Расселл
В ролях: Кристиан Бэйл, Марго Робби, Джон Дэвид Вашингтон, Майкл Б. Джордан, Крис Рок, Аня Тейлор-Джой, Зои Салдана, Майк Майерс, Майкл Шеннон, Тимоти Олифант, Андреа Райзборо, Тейлор Свифт, Маттиас Шонартс, Алессандро Нивола, Рами Малек, Роберт Де Ниро

О фильме:
Нью-Йорк, 1933 год. Ветеран Первой мировой Бёрт Берендсен держит небольшую клинику и помогает таким же покалеченным войной бедолагам, как и он сам. Однажды его с лучшим другом и сослуживцем, адвокатом Харольдом Вудменом, нанимает дочь их бывшего полководца, чтобы провести вскрытие внезапно почившего отца, который только что прибыл из Европы и собирался выступить с речью на собрании однополчан. Ввязавшись в это дело, Бёрт и Харольд даже не представляли, как далеко оно их заведёт, и что они снова встретят свою родную душу Валери — медсестру из французского госпиталя, с которой они по окончании войны провели незабываемое время в Амстердаме.

Выпущено: США, Канада
Студия: New Regency Productions, 20th Century Studios, Forest Hill Entertainment Canterbury Classic, Regency Enterprizes
Продолжительность: 02:14:14
Перевод #1: Дублированный (неофициальный) | Jaskier
Перевод #2: Профессиональный многоголосый | LostFilm
Перевод #3: Профессиональный многоголосый | TvShows
Перевод #4: Профессиональный многоголосый | Д. Есарев
Субтитры: Русские (Full), английские (Forced, Full, SDH)

Файл
Формат: Matroska
Качество: BDRip-AVC
Видео: 1024×428 at 23.976 fps, [email protected], ~1355 kbps
Аудио 1: AC3, 6 ch, ~448 kbps — | Русский | Амстердам / Amsterdam (2022) BDRip-AVC от DoMiNo & селезень | D, P, A | Jaskier
Аудио 2: AC3, 6 ch, ~192 kbps — | Русский | | LostFilm
Аудио 3: AC3, 6 ch, ~192 kbps — | Русский | | TvShows
Аудио 4: AC3, 6 ch, ~384 kbps — | Русский | | Jaskier
Аудио 5: AC3, 6 ch, ~384 kbps — | Английский | | Оригинал
Формат субтитров: softsub (SRT)

Амстердам / Amsterdam (2022) BDRip-AVC от DoMiNo & селезень | D, P, A

Авторизуйтесь для получения доступа к скачиванию

Нет аккаунта? Регистрация открыта и займёт меньше минуты

Вход Регистрация

x264 [info]: frame I:1488 Avg QP:12.92 size: 54488
x264 [info]: frame P:36960 Avg QP:14.72 size: 16392
x264 [info]: frame B:154676 Avg QP:17.12 size: 4377

General
Unique ID : 80151325014615005460398752217591607206 (0×3C4C956CE41E0CD181971B3152C26FA6)
Complete name : L:Amsterdam.2022.BDRip.x264.seleZen.mkv
Format : Matroska
Format version : Version 4
File size : 2.77 GiB
Duration : 2 h 14 min
Overall bit rate : 2 958 kb/s
Movie name : Amsterdam.2022.BDRip.x264.seleZen
Encoded date : UTC 06.12.2022 10:05:33
Writing application : mkvmerge v72.0.0 ('Minuano (Six-eight)') 64-bit
Writing library : libebml v1.4.4 + libmatroska v1.7.1
Cover : Yes
Attachments : cover.jpg / small_cover.jpg

Video
ID : 1
Format : AVC
Format/Info : Advanced Video Codec
Format profile : [email protected]
Format settings : CABAC / 11 Ref Frames
Format settings, CABAC : Yes
Format settings, Reference : 11 frames
Codec ID : V_MPEG4/ISO/AVC
Duration : 2 h 14 min
Bit rate : 1 355 kb/s
Width : 1 024 pixels
Height : 428 pixels
Display aspect ratio : 2.40:1
Frame rate mode : Constant
Frame rate : 23.976 (24000/1001) FPS
Color space : YUV
Chroma subsampling : 4:2:0
Bit depth : 8 bits
Scan type : Progressive
Bits/(Pixel*Frame) : 0.129
Stream size : 1.27 GiB (46%)
Title : -=DoMiNo=-
Writing library : x264 core 164 r3099+55M 141af3f t_mod_New | by -=DoMiNo=- | X86_64
Encoding settings : cabac=1 / ref=11 / deblock=1:-3:-2 / analyse=0×3:0×133 / me=umh / subme=11 / psy=1 / fade_compensate=0.00 / psy_rd=1.05:0.00 / mixed_ref=1 / me_range=32 / chroma_me=1 / trellis=2 / 8×8dct=1 / cqm=0 / deadzone=21,11 / fast_pskip=0 / chroma_qp_offset=-2 / threads=17 / lookahead_threads=3 / sliced_threads=0 / nr=0 / decimate=1 / interlaced=0 / bluray_compat=0 / constrained_intra=0 / fgo=0 / bframes=16 / b_pyramid=2 / b_adapt=2 / b_bias=0 / direct=1 / weightb=1 / open_gop=0 / weightp=2 / keyint=250 / keyint_min=23 / scenecut=40 / intra_refresh=0 / rc_lookahead=60 / rc=crf / mbtree=0 / crf=16.8000 / qcomp=0.60 / qpmin=0:0:0 / qpmax=69:69:69 / qpstep=4 / vbv_maxrate=50000 / vbv_bufsize=62500 / crf_max=0.0 / nal_hrd=none / filler=0 / ip_ratio=1.35 / pb_ratio=1.25 / aq=3:0.80 / aq-sensitivity=10.00 / aq-factor=1.00:1.00:1.00 / aq2=0 / aq3=0
Language : English
Default : Yes
Forced : No
Color range : Limited
Matrix coefficients : BT.709

Audio #1
ID : 2
Format : AC-3
Format/Info : Audio Coding 3
Commercial name : Dolby Digital
Codec ID : A_AC3
Duration : 2 h 14 min
Bit rate mode : Constant
Bit rate : 448 kb/s
Channel (s) : 6 channels
Channel layout : L R C LFE Ls Rs
Sampling rate : 48.0 kHz
Frame rate : 31.250 FPS (1536 SPF)
Compression mode : Lossy
Stream size : 430 MiB (15%)
Title : Dub_[Jaskier]
Language : Russian
Service kind : Complete Main
Default : Yes
Forced : Yes

Audio #2
ID : 3
Format : AC-3
Format/Info : Audio Coding 3
Commercial name : Dolby Digital
Codec ID : A_AC3
Duration : 2 h 14 min
Bit rate mode : Constant
Bit rate : 192 kb/s
Channel (s) : 2 channels
Channel layout : L R
Sampling rate : 48.0 kHz
Frame rate : 31.250 FPS (1536 SPF)
Compression mode : Lossy
Stream size : 184 MiB (6%)
Title : MVO_[LostFilm]
Language : Russian
Service kind : Complete Main
Default : No
Forced : No

Audio #3
ID : 4
Format : AC-3
Format/Info : Audio Coding 3
Commercial name : Dolby Digital
Codec ID : A_AC3
Duration : 2 h 14 min
Bit rate mode : Constant
Bit rate : 192 kb/s
Channel (s) : 2 channels
Channel layout : L R
Sampling rate : 48.0 kHz
Frame rate : 31.250 FPS (1536 SPF)
Compression mode : Lossy
Stream size : 184 MiB (6%)
Title : MVO_[TVShows]
Language : Russian
Service kind : Complete Main
Default : No
Forced : No

Audio #4
ID : 5
Format : AC-3
Format/Info : Audio Coding 3
Commercial name : Dolby Digital
Codec ID : A_AC3
Duration : 2 h 14 min
Bit rate mode : Constant
Bit rate : 384 kb/s
Channel (s) : 6 channels
Channel layout : L R C LFE Ls Rs
Sampling rate : 48.0 kHz
Frame rate : 31.250 FPS (1536 SPF)
Compression mode : Lossy
Stream size : 369 MiB (13%)
Title : AVO_[Д.Есарев]
Language : Russian
Service kind : Complete Main
Default : No
Forced : No

Audio #5
ID : 6
Format : AC-3
Format/Info : Audio Coding 3
Commercial name : Dolby Digital
Codec ID : A_AC3
Duration : 2 h 14 min
Bit rate mode : Constant
Bit rate : 384 kb/s
Channel (s) : 6 channels
Channel layout : L R C LFE Ls Rs
Sampling rate : 48.0 kHz
Frame rate : 31.250 FPS (1536 SPF)
Compression mode : Lossy
Stream size : 369 MiB (13%)
Title : Original
Language : English
Service kind : Complete Main
Default : No
Forced : No

Text #1
ID : 7
Format : UTF-8
Codec ID : S_TEXT/UTF8
Codec ID/Info : UTF-8 Plain Text
Duration : 2 h 8 min
Bit rate : 148 b/s
Count of elements : 2571
Stream size : 140 KiB (0%)
Title : Full
Language : Russian
Default : No
Forced : No

Text #2
ID : 8
Format : UTF-8
Codec ID : S_TEXT/UTF8
Codec ID/Info : UTF-8 Plain Text
Duration : 6 min 14 s
Bit rate : 18 b/s
Count of elements : 43
Stream size : 880 Bytes (0%)
Title : Forced
Language : English
Default : No
Forced : No

Text #3
ID : 9
Format : UTF-8
Codec ID : S_TEXT/UTF8
Codec ID/Info : UTF-8 Plain Text
Duration : 2 h 6 min
Bit rate : 98 b/s
Count of elements : 2976
Stream size : 91.4 KiB (0%)
Title : Full
Language : English
Default : No
Forced : No

Text #4
ID : 10
Format : UTF-8
Codec ID : S_TEXT/UTF8
Codec ID/Info : UTF-8 Plain Text
Duration : 2 h 12 min
Bit rate : 102 b/s
Count of elements : 3159
Stream size : 99.8 KiB (0%)
Title : SDH
Language : English
Default : No
Forced : No

Menu
00:00:00.000 : en:Chapter 01
00:07:10.555 : en:Chapter 02
00:15:38.229 : en:Chapter 03
00:26:46.438 : en:Chapter 04
00:33:22.375 : en:Chapter 05
00:45:19.467 : en:Chapter 06
00:50:58.055 : en:Chapter 07
01:02:26.576 : en:Chapter 08
01:12:40.731 : en:Chapter 09
01:20:57.352 : en:Chapter 10
01:25:32.085 : en:Chapter 11
01:32:46.311 : en:Chapter 12
01:35:32.977 : en:Chapter 13
01:39:08.818 : en:Chapter 14
01:42:45.493 : en:Chapter 15
01:49:23.307 : en:Chapter 16
01:55:52.320 : en:Chapter 17
02:07:03.115 : en:Chapter 18

Другие фильмы
У данной публикации пока нет комментариев.
Будь первым, оставь своё мнение в комментариях!
Информация
Посетители, находящиеся в группе Гости, не могут оставлять комментарии к данной публикации.
Самый популярный релиз недели

Кино копилка
...
Какую тему вы используете?

Реклама
Последние комментарии
...

sanders2

Вчера, 21:29

...

ivanfan1337

1 февраля 2023 12:49

...

Bhaar

30 января 2023 22:55

...

dembell56

29 января 2023 11:37

...

rmzshka

27 января 2023 14:23

Реклама