+9

Гнев во спасение / Savage Salvation (2022) BDRip-AVC от DoMiNo & селезень | D

Информация о фильме
Название: Гнев во спасение
Оригинальное название: Savage Salvation
Год выхода: 2022
Жанр: Боевик, триллер, криминал
Режиссер: Рэндолл Эмметт
В ролях: Роберт Де Ниро, Уилла Фицджералд, Джон Малкович, Дейл Дикки, Джек Хьюстон, Винтер Эйв Золи, Линдсей Палсифер, Каталина Витери, Свен Теммел, Тайлер Джон Олсон, Тирни Смит, Селеста Фианна, Клэй Уилкокс, Джули Оливер-Тачстоун, Дж. Оскар Симмонс, Трент Л. Хорн, Лорен Джонсон

О фильме:
Любовь Джона и Руби стала их спасением от наркотической зависимости, но неожиданно девушка умирает от передозировки. Ослепленный яростью и вооруженный пистолетом для забивания гвоздей Джон начинает мстить. Он один за другим убивает каждого в цепочке дилерской сети: от уличного продавца, у которого Руби приобрела товар, и до главного босса местной наркомафии. Шериф Черч и детектив Цеппелин пытаются опередить обезумевшего парня и прекратить развязанную им кровавую бойню.

Страна: США
Студия: The Avenue Entertainment, BondIt Media Capital, Buffalo 8 Productions
Продолжительность: 01:41:06
Перевод: Дублированный | The Kitchen Russia
Субтитры: Русские (Full), английские

Файл
Формат: Matroska
Качество: BDRip-AVC
Видео: 1024x428 at 23.976 fps, [email protected], ~2227 kbps
Аудио 1: AC3, 6 ch, ~448 kbps - | Русский | Гнев во спасение / Savage Salvation (2022) BDRip-AVC от DoMiNo & селезень | D
Аудио 2: AC3, 6 ch, ~448 kbps - | Английский |
Формат субтитров: softsub (SRT)

Гнев во спасение / Savage Salvation (2022) BDRip-AVC от DoMiNo & селезень | D

Авторизуйтесь для получения доступа к скачиванию

Нет аккаунта? Регистрация открыта и займёт меньше минуты

Вход Регистрация

x264 [info]: frame I:1049 Avg QP:18.17 size: 56501
x264 [info]: frame P:29258 Avg QP:19.70 size: 23907
x264 [info]: frame B:115135 Avg QP:21.29 size: 8074
x264 [info]: consecutive B-frames: 1.9% 2.3% 6.6% 16.9% 15.9% 36.4% 5.7% 1.5% 2.0% 1.4% 1.7% 0.4% 2.9% 3.8% 0.5%

General
Unique ID : 74323389499183139306587626956756631726 (0x37EA2A051C5792EEB7013A90175440AE)
Complete name : D:Savage.Salvation.2022.BDRip.x264.seleZen.mkv
Format : Matroska
Format version : Version 4
File size : 2.21 GiB
Duration : 1 h 41 min
Overall bit rate : 3 124 kb/s
Movie name : Savage.Salvation.2022.BDRip.x264.seleZen
Encoded date : UTC 2022-12-15 15:59:22
Writing application : mkvmerge v72.0.0 ('Minuano (Six-eight)') 64-bit
Writing library : libebml v1.4.4 + libmatroska v1.7.1
Cover : Yes
Attachments : cover.jpg / small_cover.jpg

Video
ID : 1
Format : AVC
Format/Info : Advanced Video Codec
Format profile : [email protected]
Format settings : CABAC / 11 Ref Frames
Format settings, CABAC : Yes
Format settings, Reference : 11 frames
Codec ID : V_MPEG4/ISO/AVC
Duration : 1 h 41 min
Bit rate : 2 227 kb/s
Width : 1 024 pixels
Height : 428 pixels
Display aspect ratio : 2.40:1
Frame rate mode : Constant
Frame rate : 23.976 (24000/1001) FPS
Color space : YUV
Chroma subsampling : 4:2:0
Bit depth : 8 bits
Scan type : Progressive
Bits/(Pixel*Frame) : 0.212
Stream size : 1.57 GiB (71%)
Title : -=DoMiNo=-
Writing library : x264 core 164 r3099+55M 141af3f t_mod_New | by -=DoMiNo=- | X86_64
Encoding settings : cabac=1 / ref=11 / deblock=1:-3:-2 / analyse=0x3:0x133 / me=umh / subme=11 / psy=1 / fade_compensate=0.00 / psy_rd=1.05:0.00 / mixed_ref=1 / me_range=32 / chroma_me=1 / trellis=2 / 8x8dct=1 / cqm=0 / deadzone=21,11 / fast_pskip=0 / chroma_qp_offset=-2 / threads=17 / lookahead_threads=3 / sliced_threads=0 / nr=0 / decimate=1 / interlaced=0 / bluray_compat=0 / constrained_intra=0 / fgo=0 / bframes=14 / b_pyramid=2 / b_adapt=2 / b_bias=0 / direct=1 / weightb=1 / open_gop=0 / weightp=2 / keyint=250 / keyint_min=23 / scenecut=40 / intra_refresh=0 / rc_lookahead=60 / rc=crf / mbtree=0 / crf=20.0000 / qcomp=0.70 / qpmin=0:0:0 / qpmax=69:69:69 / qpstep=4 / vbv_maxrate=50000 / vbv_bufsize=62500 / crf_max=0.0 / nal_hrd=none / filler=0 / ip_ratio=1.35 / pb_ratio=1.25 / aq=3:0.80 / aq-sensitivity=10.00 / aq-factor=1.00:1.00:1.00 / aq2=0 / aq3=0
Language : English
Default : Yes
Forced : No
Color range : Limited
Matrix coefficients : BT.709

Audio #1
ID : 2
Format : AC-3
Format/Info : Audio Coding 3
Commercial name : Dolby Digital
Codec ID : A_AC3
Duration : 1 h 40 min
Bit rate mode : Constant
Bit rate : 448 kb/s
Channel(s) : 6 channels
Channel layout : L R C LFE Ls Rs
Sampling rate : 48.0 kHz
Frame rate : 31.250 FPS (1536 SPF)
Compression mode : Lossy
Stream size : 323 MiB (14%)
Title : Dub
Language : Russian
Service kind : Complete Main
Default : Yes
Forced : Yes

Audio #2
ID : 3
Format : AC-3
Format/Info : Audio Coding 3
Commercial name : Dolby Digital
Codec ID : A_AC3
Duration : 1 h 41 min
Bit rate mode : Constant
Bit rate : 448 kb/s
Channel(s) : 6 channels
Channel layout : L R C LFE Ls Rs
Sampling rate : 48.0 kHz
Frame rate : 31.250 FPS (1536 SPF)
Compression mode : Lossy
Stream size : 324 MiB (14%)
Title : Original
Language : English
Service kind : Complete Main
Default : No
Forced : No

Text #1
ID : 4
Format : UTF-8
Codec ID : S_TEXT/UTF8
Codec ID/Info : UTF-8 Plain Text
Duration : 1 h 32 min
Bit rate : 55 b/s
Count of elements : 895
Stream size : 37.5 KiB (0%)
Title : Full
Language : Russian
Default : No
Forced : No

Text #2
ID : 5
Format : UTF-8
Codec ID : S_TEXT/UTF8
Codec ID/Info : UTF-8 Plain Text
Duration : 1 h 33 min
Bit rate : 42 b/s
Count of elements : 1185
Stream size : 29.2 KiB (0%)
Title : Full
Language : English
Default : No
Forced : No

Text #3
ID : 6
Format : UTF-8
Codec ID : S_TEXT/UTF8
Codec ID/Info : UTF-8 Plain Text
Duration : 1 h 40 min
Bit rate : 45 b/s
Count of elements : 1435
Stream size : 33.7 KiB (0%)
Title : SDH
Language : English
Default : No
Forced : No

Menu
00:00:00.000 : en:Глава 01
00:08:35.765 : en:Глава 02
00:17:28.923 : en:Глава 03
00:24:59.415 : en:Глава 04
00:33:21.583 : en:Глава 05
00:42:39.140 : en:Глава 06
00:49:59.330 : en:Глава 07
00:58:28.505 : en:Глава 08
01:06:45.710 : en:Глава 09
01:14:02.980 : en:Глава 10
01:22:06.880 : en:Глава 11
01:34:24.659 : en:Глава 12
01:40:55.091 : en:Глава 13

Другие фильмы
У данной публикации пока нет комментариев.
Будь первым, оставь своё мнение в комментариях!
Информация
Посетители, находящиеся в группе Гости, не могут оставлять комментарии к данной публикации.
Самый популярный релиз недели

Кино копилка
...
Какую тему вы используете?

Реклама
Последние комментарии
...

sanders2

Вчера, 21:29

...

ivanfan1337

1 февраля 2023 12:49

...

Bhaar

30 января 2023 22:55

...

dembell56

29 января 2023 11:37

...

rmzshka

27 января 2023 14:23

Реклама