+5

Райский город / Paradise City (2022) WEB-DLRip-AVC от DoMiNo & селезень | P | TVShows

Информация о фильме
Название: Райский город
Оригинальное название: Paradise City
Год выпуска: 2022
Жанр: Боевик, триллер
Режиссер: Чак Расселл
В ролях: Блэйк Дженнер, Джон Траволта, Брюс Уиллис, Прая Лундберг, Кори Лардж, Стивен Дорфф, Эмбер Абара, Брэнскомб Ричмонд, Кейт Кацман, Лоренцо Антонуччи

Описание:
Наемный убийца Райан Свон проникнет в криминальный мир Гавайских островов, чтобы отомстить главарю банды, который убил его отца.

Выпущено: США, 308 Ent, Arcana Studio, BondIt, Buffalo 8 Productions, Exchange, Grandave Capital
Продолжительность: 01:32:59
Перевод: Профессиональный (многоголосый, закадровый) | TVShows
Субтитры: Английские (Full, SDH)

Файл
Формат: Matroska
Качество: WEB-DLRip-AVC
Видео: 1024×424 at 23.976 fps, [email protected], ~2050 kbps
Аудио 1: AC3, 2 ch, ~192 kbps — | Русский | Райский город / Paradise City (2022) WEB-DLRip-AVC от DoMiNo & селезень | P | TVShows
Аудио 2: AC3, 6 ch, ~384 kbps — | Английский |
Формат субтитров: softsub (SRT)

Райский город / Paradise City (2022) WEB-DLRip-AVC от DoMiNo & селезень | P | TVShows

Авторизуйтесь для получения доступа к скачиванию

Нет аккаунта? Регистрация открыта и займёт меньше минуты

Вход Регистрация

x264 [info]: frame I:1032 Avg QP:15.63 size: 55314
x264 [info]: frame P:30151 Avg QP:17.89 size: 22626
x264 [info]: frame B:102584 Avg QP:19.69 size: 6731
x264 [info]: consecutive B-frames: 2,0% 2,8% 6,5% 39,9% 13,2% 21,7% 3,0% 2,2% 0,6% 4,3% 0,3% 0,4% 0,4% 0,4% 0,3% 0,7% 1,1%

General
Unique ID : 198919067015362341886824292996466442823 (0×95A66B3457E42F3A43A7AB9FCE718247)
Complete name : K:Paradise.City.2022.WEB-DLRip.x264.seleZen.mkv
Format : Matroska
Format version : Version 4
File size : 1.71 GiB
Duration : 1 h 32 min
Overall bit rate : 2 629 kb/s
Movie name : Paradise.City.2022.WEB-DLRip.x264.seleZen
Encoded date : UTC 05.12.2022 18:22:28
Writing application : mkvmerge v72.0.0 ('Minuano (Six-eight)') 64-bit
Writing library : libebml v1.4.4 + libmatroska v1.7.1
Cover : Yes
Attachments : cover.jpg / small_cover.jpg

Video
ID : 1
Format : AVC
Format/Info : Advanced Video Codec
Format profile : [email protected]
Format settings : CABAC / 12 Ref Frames
Format settings, CABAC : Yes
Format settings, Reference : 12 frames
Codec ID : V_MPEG4/ISO/AVC
Duration : 1 h 32 min
Bit rate : 2 050 kb/s
Width : 1 024 pixels
Height : 424 pixels
Display aspect ratio : 2.40:1
Frame rate mode : Constant
Frame rate : 23.976 (24000/1001) FPS
Color space : YUV
Chroma subsampling : 4:2:0
Bit depth : 8 bits
Scan type : Progressive
Bits/(Pixel*Frame) : 0.197
Stream size : 1.33 GiB (78%)
Title : -=DoMiNo=-
Writing library : x264 core 164 r3099+55M 141af3f t_mod_New | by -=DoMiNo=- | X86_64
Encoding settings : cabac=1 / ref=12 / deblock=1:-3:-2 / analyse=0×3:0×133 / me=umh / subme=10 / psy=1 / fade_compensate=0.00 / psy_rd=1.07:0.20 / mixed_ref=1 / me_range=32 / chroma_me=1 / trellis=2 / 8×8dct=1 / cqm=0 / deadzone=21,11 / fast_pskip=0 / chroma_qp_offset=-3 / threads=17 / lookahead_threads=3 / sliced_threads=0 / nr=0 / decimate=1 / interlaced=0 / bluray_compat=0 / constrained_intra=0 / fgo=0 / bframes=16 / b_pyramid=2 / b_adapt=2 / b_bias=0 / direct=1 / weightb=1 / open_gop=0 / weightp=2 / keyint=250 / keyint_min=23 / scenecut=40 / intra_refresh=0 / rc_lookahead=60 / rc=crf / mbtree=0 / crf=18.5000 / qcomp=0.65 / qpmin=0:0:0 / qpmax=69:69:69 / qpstep=4 / vbv_maxrate=50000 / vbv_bufsize=62500 / crf_max=0.0 / nal_hrd=none / filler=0 / ip_ratio=1.35 / pb_ratio=1.25 / aq=3:0.90 / aq-sensitivity=10.00 / aq-factor=1.00:1.00:1.00 / aq2=0 / aq3=0
Language : English
Default : Yes
Forced : No
Color range : Limited
Matrix coefficients : BT.709

Audio #1
ID : 2
Format : AC-3
Format/Info : Audio Coding 3
Commercial name : Dolby Digital
Codec ID : A_AC3
Duration : 1 h 32 min
Bit rate mode : Constant
Bit rate : 192 kb/s
Channel (s) : 2 channels
Channel layout : L R
Sampling rate : 48.0 kHz
Frame rate : 31.250 FPS (1536 SPF)
Compression mode : Lossy
Delay relative to video : 28 ms
Stream size : 128 MiB (7%)
Title : MVO_[TVShows]
Language : Russian
Service kind : Complete Main
Default : Yes
Forced : Yes

Audio #2
ID : 3
Format : AC-3
Format/Info : Audio Coding 3
Commercial name : Dolby Digital
Codec ID : A_AC3
Duration : 1 h 32 min
Bit rate mode : Constant
Bit rate : 384 kb/s
Channel (s) : 6 channels
Channel layout : L R C LFE Ls Rs
Sampling rate : 48.0 kHz
Frame rate : 31.250 FPS (1536 SPF)
Compression mode : Lossy
Stream size : 255 MiB (15%)
Title : Original
Language : English
Service kind : Complete Main
Default : No
Forced : No

Text #1
ID : 4
Format : UTF-8
Codec ID : S_TEXT/UTF8
Codec ID/Info : UTF-8 Plain Text
Duration : 1 h 24 min
Bit rate : 66 b/s
Count of elements : 1327
Stream size : 40.9 KiB (0%)
Title : Full
Language : English
Default : No
Forced : No

Text #2
ID : 5
Format : UTF-8
Codec ID : S_TEXT/UTF8
Codec ID/Info : UTF-8 Plain Text
Duration : 1 h 24 min
Bit rate : 68 b/s
Count of elements : 1446
Stream size : 42.9 KiB (0%)
Title : SDH
Language : English
Default : No
Forced : No

Другие фильмы
У данной публикации пока нет комментариев.
Будь первым, оставь своё мнение в комментариях!
Информация
Посетители, находящиеся в группе Гости, не могут оставлять комментарии к данной публикации.
Самый популярный релиз недели

Кино копилка
...
Какую тему вы используете?

Реклама
Последние комментарии
...

sanders2

Вчера, 21:29

...

ivanfan1337

1 февраля 2023 12:49

...

Bhaar

30 января 2023 22:55

...

dembell56

29 января 2023 11:37

...

rmzshka

27 января 2023 14:23

Реклама