+7

Зачарованная 2 / Disenchanted (2022) WEB-DLRip-AVC от DoMiNo & селезень | P | Jaskier, TVShows

Информация о фильме
Название: Зачарованная 2
Оригинальное название: Disenchanted
Год выхода: 2022
Жанр: Фэнтези, мюзикл, мелодрама, комедия, приключения, семейный
Режиссер: Адам Шенкман
В ролях: Эми Адамс, Патрик Демпси, Майя Рудольф, Габриелла Бальдаккино, Джеймс Марсден, Идина Мензел, Иветт Николь Браун, Джейма Мейс, Колтон Стюарт

О фильме:
Спустя десять лет после «и жили они долго и счастливо» Жизель задается вопросом — а действительно ли счастливо? Одно желание переворачивает жизнь героев не только в реальном мире, но и в королевстве Андалазии.]

Страна: США
Студия: Andalasia Productions, Josephson Entertainment, Metropolitan Films International, Right Coast Productions, Walt Disney Pictures
Продолжительность: 01:58:16
Перевод 1: Профессиональный многоголосый | Jaskier
Перевод 2: Профессиональный многоголосый | TVShows
Субтитры: Английские (Full, SDH)

Файл
Формат: Matroska
Качество: WEB-DLRip-AVC
Видео: 1024x426 at 24.000 fps, [email protected], ~2029 kbps
Аудио 1: AC3, 6 ch, ~384 kbps - | Русский | Зачарованная 2 / Disenchanted (2022) WEB-DLRip-AVC от DoMiNo & селезень | P | Jaskier, TVShows | Jaskier
Аудио 2: AC3, 2 ch, ~192 kbps - | Русский | | TVShows
Аудио 3: AC3, 6 ch, ~384 kbps - | Английский | | Original
Формат субтитров: softsub (SRT)

Зачарованная 2 / Disenchanted (2022) WEB-DLRip-AVC от DoMiNo & селезень | P | Jaskier, TVShows

Авторизуйтесь для получения доступа к скачиванию

Нет аккаунта? Регистрация открыта и займёт меньше минуты

Вход Регистрация

x264 [info]: frame I:1795 Avg QP:18.06 size: 67424
x264 [info]: frame P:45257 Avg QP:19.85 size: 20049
x264 [info]: frame B:123275 Avg QP:22.52 size: 6257

General
Unique ID : 82074437875449385435583249698435554713 (0×3DBEF635BA17A351A0500A338926DD99)
Complete name : D:Disenchanted.2022.WEB-DLRip.x264.seleZen.mkv
Format : Matroska
Format version : Version 4
File size : 2.47 GiB
Duration : 1 h 58 min
Overall bit rate : 2 992 kb/s
Movie name : Disenchanted.2022.WEB-DLRip.x264.seleZen
Encoded date : UTC 05.12.2022 12:28:10
Writing application : mkvmerge v72.0.0 ('Minuano (Six-eight)') 64-bit
Writing library : libebml v1.4.4 + libmatroska v1.7.1
Cover : Yes
Attachments : cover.jpg / small_cover.jpg

Video
ID : 1
Format : AVC
Format/Info : Advanced Video Codec
Format profile : [email protected]
Format settings : CABAC / 11 Ref Frames
Format settings, CABAC : Yes
Format settings, Reference : 11 frames
Codec ID : V_MPEG4/ISO/AVC
Duration : 1 h 58 min
Bit rate : 2 029 kb/s
Width : 1 024 pixels
Height : 426 pixels
Display aspect ratio : 2.40:1
Frame rate mode : Constant
Frame rate : 24.000 FPS
Color space : YUV
Chroma subsampling : 4:2:0
Bit depth : 8 bits
Scan type : Progressive
Bits/(Pixel*Frame) : 0.194
Stream size : 1.68 GiB (68%)
Title : -=DoMiNo=-
Writing library : x264 core 164 r3099+55M 141af3f t_mod_New | by -=DoMiNo=- | X86_64
Encoding settings : cabac=1 / ref=11 / deblock=1:-3:-2 / analyse=0×3:0×133 / me=umh / subme=10 / psy=1 / fade_compensate=0.00 / psy_rd=1.10:0.00 / mixed_ref=1 / me_range=32 / chroma_me=1 / trellis=2 / 8×8dct=1 / cqm=0 / deadzone=21,11 / fast_pskip=0 / chroma_qp_offset=-2 / threads=17 / lookahead_threads=3 / sliced_threads=0 / nr=0 / decimate=1 / interlaced=0 / bluray_compat=0 / constrained_intra=0 / fgo=0 / bframes=16 / b_pyramid=2 / b_adapt=2 / b_bias=0 / direct=1 / weightb=1 / open_gop=0 / weightp=2 / keyint=250 / keyint_min=24 / scenecut=40 / intra_refresh=0 / rc_lookahead=60 / rc=crf / mbtree=0 / crf=19.0000 / qcomp=0.70 / qpmin=0:0:0 / qpmax=69:69:69 / qpstep=4 / vbv_maxrate=50000 / vbv_bufsize=62500 / crf_max=0.0 / nal_hrd=none / filler=0 / ip_ratio=1.35 / pb_ratio=1.25 / aq=3:0.80 / aq-sensitivity=10.00 / aq-factor=1.00:1.00:1.00 / aq2=0 / aq3=0
Language : English
Default : Yes
Forced : No
Color range : Limited
Matrix coefficients : BT.709

Audio #1
ID : 2
Format : AC-3
Format/Info : Audio Coding 3
Commercial name : Dolby Digital
Codec ID : A_AC3
Duration : 1 h 58 min
Bit rate mode : Constant
Bit rate : 384 kb/s
Channel (s) : 6 channels
Channel layout : L R C LFE Ls Rs
Sampling rate : 48.0 kHz
Frame rate : 31.250 FPS (1536 SPF)
Compression mode : Lossy
Stream size : 325 MiB (13%)
Title : MVO [Jaskier]
Language : Russian
Service kind : Complete Main
Default : Yes
Forced : Yes

Audio #2
ID : 3
Format : AC-3
Format/Info : Audio Coding 3
Commercial name : Dolby Digital
Codec ID : A_AC3
Duration : 1 h 58 min
Bit rate mode : Constant
Bit rate : 192 kb/s
Channel (s) : 2 channels
Channel layout : L R
Sampling rate : 48.0 kHz
Frame rate : 31.250 FPS (1536 SPF)
Compression mode : Lossy
Stream size : 162 MiB (6%)
Title : MVO [TVShows]
Language : Russian
Service kind : Complete Main
Default : No
Forced : No

Audio #3
ID : 4
Format : AC-3
Format/Info : Audio Coding 3
Commercial name : Dolby Digital
Codec ID : A_AC3
Duration : 1 h 58 min
Bit rate mode : Constant
Bit rate : 384 kb/s
Channel (s) : 6 channels
Channel layout : L R C LFE Ls Rs
Sampling rate : 48.0 kHz
Frame rate : 31.250 FPS (1536 SPF)
Compression mode : Lossy
Stream size : 325 MiB (13%)
Title : Original
Language : English
Service kind : Complete Main
Default : No
Forced : No

Text #1
ID : 5
Format : UTF-8
Codec ID : S_TEXT/UTF8
Codec ID/Info : UTF-8 Plain Text
Duration : 1 h 48 min
Bit rate : 70 b/s
Count of elements : 1779
Stream size : 55.8 KiB (0%)
Title : Full
Language : English
Default : No
Forced : No

Text #2
ID : 6
Format : UTF-8
Codec ID : S_TEXT/UTF8
Codec ID/Info : UTF-8 Plain Text
Duration : 1 h 48 min
Bit rate : 82 b/s
Count of elements : 2097
Stream size : 65.7 KiB (0%)
Title : SDH
Language : English
Default : No
Forced : No

Menu
00:00:00.000 : en:Глава 01
00:13:20.000 : en:Глава 02
00:26:40.000 : en:Глава 03
00:40:00.000 : en:Глава 04
00:53:20.000 : en:Глава 05
01:06:40.000 : en:Глава 06
01:20:00.000 : en:Глава 07
01:33:20.000 : en:Глава 08
01:46:40.000 : en:Глава 09

Другие фильмы
У данной публикации пока нет комментариев.
Будь первым, оставь своё мнение в комментариях!
Информация
Посетители, находящиеся в группе Гости, не могут оставлять комментарии к данной публикации.
Самый популярный релиз недели

Кино копилка
...
Какую тему вы используете?

Реклама
Последние комментарии
...

sanders2

Вчера, 21:29

...

ivanfan1337

1 февраля 2023 12:49

...

Bhaar

30 января 2023 22:55

...

dembell56

29 января 2023 11:37

...

rmzshka

27 января 2023 14:23

Реклама