+2

Там, где раки поют / Where the Crawdads Sing (2022) BDRemux 1080p от селезень | iTunes

Информация о фильме
Название: Там, где раки поют
Оригинальное название: Where the Crawdads Sing
Год выхода: 2022
Жанр: триллер, драма, детектив
Режиссер: Оливия Ньюман
В ролях: Дэйзи Эдгар-Джонс, Тейлор Джон Смит, Харрис Дикинсон, Дэвид Стрэтэйрн, Майкл Хайатт, Стерлинг Мейсер мл., Логан Макрэй, Билл Келли, Ана О'Райли, Гаррет Диллахант

О фильме: Годами жители тихого городка Баркли-Коув, затерянного в глуши Северной Каролины, делились друг с другом легендой о «болотной девочке» - девушке по имени Киа Кларк, с юных лет живущей отшельницей. Знакомство с двумя местными юношами открывает перед Кией новый мир. Но когда одного из них находят мёртвым, молва тут же назначает её виновной.

Страна: США
Студия: 3000 Pictures, Hello Sunshine
Продолжительность: 02:05:25
Перевод(ы): Дублированный | iTunes

Качество: BDRemux 1080p
Видео: MPEG-4 AVC, 1920x1080, 24.8 Mbit/s, 23.976 fps
Аудио #01: 48 kHz, AC3, 5.1, 384 Kbps | Дублированный | iTunes | RUS |Там, где раки поют / Where the Crawdads Sing (2022) BDRemux 1080p от селезень | iTunes
Аудио #02: 48 kHz, DTS-HD MA, 5.1, 2126 Kbps | Оригинал | ENG |
Субтитры: Русские (Full), английские

Там, где раки поют / Where the Crawdads Sing (2022) BDRemux 1080p от селезень | iTunes

Авторизуйтесь для получения доступа к скачиванию

Нет аккаунта? Регистрация открыта и займёт меньше минуты

Вход Регистрация

General
Unique ID : 115050254967802963629655356419536760413 (0x568DDF847A19454FCB149301F256AE5D)
Complete name : D:\Videos\Where.the.Crawdads.Sing.2022.D.BDREMUX.1080p.seleZen.mkv
Format : Matroska
Format version : Version 4
File size : 24.0 GiB
Duration : 2 h 5 min
Overall bit rate mode : Variable
Overall bit rate : 27.4 Mb/s
Movie name : Where the Crawdads Sing 2022 from seleZen
Encoded date : UTC 2022-12-03 16:06:17
Writing application : mkvmerge v59.0.0 ('Shining Star') 64-bit
Writing library : libebml v1.4.2 + libmatroska v1.6.4

Video
ID : 1
ID in the original source m : 4113 (0x1011)
Format : AVC
Format/Info : Advanced Video Codec
Format profile : [email protected]
Format settings : CABAC / 2 Ref Frames
Format settings, CABAC : Yes
Format settings, Reference : 2 frames
Format settings, GOP : M=1, N=10
Codec ID : V_MPEG4/ISO/AVC
Duration : 2 h 5 min
Bit rate mode : Variable
Bit rate : 24.8 Mb/s
Width : 1 920 pixels
Height : 1 080 pixels
Display aspect ratio : 16:9
Frame rate mode : Constant
Frame rate : 23.976 (24000/1001) FPS
Color space : YUV
Chroma subsampling : 4:2:0
Bit depth : 8 bits
Scan type : Progressive
Bits/(Pixel*Frame) : 0.500
Stream size : 21.8 GiB (91%)
Language : English
Default : Yes
Forced : No
Original source medium : Blu-ray

Audio #1
ID : 2
Format : AC-3
Format/Info : Audio Coding 3
Commercial name : Dolby Digital
Codec ID : A_AC3
Duration : 2 h 5 min
Bit rate mode : Constant
Bit rate : 384 kb/s
Channel(s) : 6 channels
Channel layout : L R C LFE Ls Rs
Sampling rate : 48.0 kHz
Frame rate : 31.250 FPS (1536 SPF)
Compression mode : Lossy
Stream size : 344 MiB (1%)
Title : Dub
Language : Russian
Service kind : Complete Main
Default : Yes
Forced : Yes

Audio #2
ID : 3
ID in the original source m : 4352 (0x1100)
Format : DTS XLL
Format/Info : Digital Theater Systems
Commercial name : DTS-HD Master Audio
Codec ID : A_DTS
Duration : 2 h 5 min
Bit rate mode : Variable
Bit rate : 2 126 kb/s
Channel(s) : 6 channels
Channel layout : C L R Ls Rs LFE
Sampling rate : 48.0 kHz
Frame rate : 93.750 FPS (512 SPF)
Bit depth : 16 bits
Compression mode : Lossless
Stream size : 1.86 GiB (8%)
Title : Original
Language : English
Default : No
Forced : No
Original source medium : Blu-ray

Text #1
ID : 4
Format : UTF-8
Codec ID : S_TEXT/UTF8
Codec ID/Info : UTF-8 Plain Text
Duration : 1 h 59 min
Bit rate : 80 b/s
Frame rate : 0.196 FPS
Count of elements : 1410
Stream size : 70.4 KiB (0%)
Title : Full
Language : Russian
Default : No
Forced : No

Text #2
ID : 5
Format : UTF-8
Codec ID : S_TEXT/UTF8
Codec ID/Info : UTF-8 Plain Text
Duration : 1 h 59 min
Bit rate : 51 b/s
Frame rate : 0.179 FPS
Count of elements : 1288
Stream size : 45.1 KiB (0%)
Title : Full
Language : English
Default : No
Forced : No

Text #3
ID : 6
Format : UTF-8
Codec ID : S_TEXT/UTF8
Codec ID/Info : UTF-8 Plain Text
Duration : 2 h 4 min
Bit rate : 55 b/s
Frame rate : 0.195 FPS
Count of elements : 1451
Stream size : 50.7 KiB (0%)
Title : SDH
Language : English
Default : No
Forced : No

Menu
00:00:00.000 : Chapter 1
00:08:45.191 : Chapter 2
00:15:25.967 : Chapter 3
00:22:13.958 : Chapter 4
00:29:12.834 : Chapter 5
00:36:33.316 : Chapter 6
00:46:39.338 : Chapter 7
00:54:06.660 : Chapter 8
01:00:51.231 : Chapter 9
01:06:53.301 : Chapter 10
01:15:50.463 : Chapter 11
01:22:19.101 : Chapter 12
01:29:23.441 : Chapter 13
01:36:23.152 : Chapter 14
01:43:36.335 : Chapter 15
01:53:24.089 : Chapter 16
02:00:59.627 : Chapter 17

Другие фильмы
У данной публикации пока нет комментариев.
Будь первым, оставь своё мнение в комментариях!
Информация
Посетители, находящиеся в группе Гости, не могут оставлять комментарии к данной публикации.
Самый популярный релиз недели

Кино копилка
...
Какую тему вы используете?

Реклама
Последние комментарии
...

sanders2

Вчера, 21:29

...

ivanfan1337

1 февраля 2023 12:49

...

Bhaar

30 января 2023 22:55

...

dembell56

29 января 2023 11:37

...

rmzshka

27 января 2023 14:23

Реклама