+11

Чёрный Адам / Black Adam (2022) BDRip-AVC от DoMiNo & селезень | D

Информация о фильме
Название: Чёрный Адам
Оригинальное название: Black Adam
Год выхода: 2022
Жанр: Фантастика, фэнтези, боевик, приключения
Режиссер: Жауме Кольет-Серра
В ролях: Дуэйн Джонсон, Элдис Ходж, Пирс Броснан, Ной Сентинео, Сара Шахи, Куинтесса Суинделл, Марван Кензари, Бодхи Сабонгуй, Мохаммед Амер, Джеймс Мойер и другие.

О фильме:
5000 лет назад Чёрный Адам был наделен силами египетских богов и заключён в тюрьму. Теперь он освобождается из своей усыпальницы и готовится явить миру уникальный подход к борьбе за справедливость.

Страна: США, Канада, Новая Зеландия, Венгрия
Студия: 7 Bucks Productions, DC Entertainment, Flynn Picture Company, Motion Picture Foundation of Hungary, New Line Cinema, New Zealand Film Commission, Québec Production Services Tax Credit, Warner Bros..
Продолжительность: 02:04:52
Перевод 1: Дублированный | Bravo Records Georgia
Перевод 2: Дублированный (неофициальный) | Red Head Sound
Субтитры: Русские (Forced, full), английские

Файл
Формат: Matroska
Качество: BDRip-AVC [исх.Black.Adam.2022.1080p.Remux.AVC.TrueHD.Atmos.7.1-playBD]
Видео: 1024x428 at 23.976 fps, [email protected], ~2698 kbps
Аудио 1: AC3, 6 ch, ~384 kbps - | Русский | Чёрный Адам / Black Adam (2022) BDRip-AVC от DoMiNo & селезень | D | Bravo Records Georgia
Аудио 2: AC3, 6 ch, ~448 kbps - | Русский | | Red Head Sound
Аудио 3: AC3, 6 ch, ~448 kbps - | Английский | | Original
Формат субтитров: softsub (SRT)

Чёрный Адам / Black Adam (2022) BDRip-AVC от DoMiNo & селезень | D

Авторизуйтесь для получения доступа к скачиванию

Нет аккаунта? Регистрация открыта и займёт меньше минуты

Вход Регистрация

x264 [info]: frame I:2026 Avg QP:15.93 size: 64132
x264 [info]: frame P:47918 Avg QP:18.10 size: 25439
x264 [info]: frame B:129692 Avg QP:20.41 size: 9080
x264 [info]: consecutive B-frames: 4,8% 6,1% 12,9% 32,8% 14,6% 20,5% 3,4% 3,2% 0,7% 0,3% 0,2% 0,2% 0,1%

General
Unique ID : 309861078092676593965217759760730598856 (0xE91D12A8E941C4EE8C7BC399F14CADC8)
Complete name : D:Black.Adam.2022.2xDUB.BDRip.x264.seleZen.mkv
Format : Matroska
Format version : Version 4
File size : 3.47 GiB
Duration : 2 h 4 min
Overall bit rate : 3 980 kb/s
Movie name : Black.Adam.2022.2xDUB.BDRip.x264.seleZen
Encoded date : UTC 03.01.2023 06:51:38
Writing application : mkvmerge v73.0.0 ('25 or 6 to 4') 64-bit
Writing library : libebml v1.4.4 + libmatroska v1.7.1
Cover : Yes
Attachments : cover.jpg / small_cover.jpg

Video
ID : 1
Format : AVC
Format/Info : Advanced Video Codec
Format profile : [email protected]
Format settings : CABAC / 12 Ref Frames
Format settings, CABAC : Yes
Format settings, Reference : 12 frames
Codec ID : V_MPEG4/ISO/AVC
Duration : 2 h 4 min
Bit rate : 2 698 kb/s
Width : 1 024 pixels
Height : 428 pixels
Display aspect ratio : 2.40:1
Frame rate mode : Constant
Frame rate : 23.976 (24000/1001) FPS
Color space : YUV
Chroma subsampling : 4:2:0
Bit depth : 8 bits
Scan type : Progressive
Bits/(Pixel*Frame) : 0.257
Stream size : 2.35 GiB (68%)
Title : -=DoMiNo=-
Writing library : x264 core 164 by -=DoMiNo=-
Encoding settings : cabac=1 / ref=12 / deblock=1:-3:-3 / analyse=0×3:0×133 / me=umh / subme=11 / psy=1 / psy_rd=1.03:0.02 / mixed_ref=1 / me_range=48 / chroma_me=1 / trellis=2 / 8×8dct=1 / cqm=0 / deadzone=21,11 / fast_pskip=0 / chroma_qp_offset=-3 / threads=17 / lookahead_threads=3 / sliced_threads=0 / nr=0 / decimate=1 / interlaced=0 / bluray_compat=0 / constrained_intra=0 / bframes=12 / b_pyramid=2 / b_adapt=2 / b_bias=0 / direct=1 / weightb=1 / open_gop=0 / weightp=2 / keyint=250 / keyint_min=23 / scenecut=40 / intra_refresh=0 / rc=crf / mbtree=0 / crf=18.0 / qcomp=0.70 / qpmin=0 / qpmax=69 / qpstep=4 / ip_ratio=1.35 / pb_ratio=1.25 / aq=3:0.80
Language : English
Default : Yes
Forced : No
Color range : Limited
Matrix coefficients : BT.709

Audio #1
ID : 2
Format : AC-3
Format/Info : Audio Coding 3
Commercial name : Dolby Digital
Codec ID : A_AC3
Duration : 2 h 4 min
Bit rate mode : Constant
Bit rate : 384 kb/s
Channel (s) : 6 channels
Channel layout : L R C LFE Ls Rs
Sampling rate : 48.0 kHz
Frame rate : 31.250 FPS (1536 SPF)
Compression mode : Lossy
Stream size : 343 MiB (10%)
Title : DUB_[Bravo Records Georgia]
Language : Russian
Service kind : Complete Main
Default : Yes
Forced : Yes

Audio #2
ID : 3
Format : AC-3
Format/Info : Audio Coding 3
Commercial name : Dolby Digital
Codec ID : A_AC3
Duration : 2 h 4 min
Bit rate mode : Constant
Bit rate : 448 kb/s
Channel (s) : 6 channels
Channel layout : L R C LFE Ls Rs
Sampling rate : 48.0 kHz
Frame rate : 31.250 FPS (1536 SPF)
Compression mode : Lossy
Stream size : 400 MiB (11%)
Title : DUB_[Red Head Sound]
Language : Russian
Service kind : Complete Main
Default : No
Forced : No

Audio #3
ID : 4
Format : AC-3
Format/Info : Audio Coding 3
Commercial name : Dolby Digital
Codec ID : A_AC3
Duration : 2 h 4 min
Bit rate mode : Constant
Bit rate : 448 kb/s
Channel (s) : 6 channels
Channel layout : L R C LFE Ls Rs
Sampling rate : 48.0 kHz
Frame rate : 31.250 FPS (1536 SPF)
Compression mode : Lossy
Stream size : 400 MiB (11%)
Title : Original
Language : English
Service kind : Complete Main
Default : No
Forced : No

Text #1
ID : 5
Format : UTF-8
Codec ID : S_TEXT/UTF8
Codec ID/Info : UTF-8 Plain Text
Duration : 2 h 3 min
Bit rate : 4 b/s
Count of elements : 102
Stream size : 3.87 KiB (0%)
Title : Forced
Language : Russian
Default : Yes
Forced : Yes

Text #2
ID : 6
Format : UTF-8
Codec ID : S_TEXT/UTF8
Codec ID/Info : UTF-8 Plain Text
Duration : 2 h 3 min
Bit rate : 68 b/s
Count of elements : 1297
Stream size : 62.0 KiB (0%)
Title : Full
Language : Russian
Default : No
Forced : No

Text #3
ID : 7
Format : UTF-8
Codec ID : S_TEXT/UTF8
Codec ID/Info : UTF-8 Plain Text
Duration : 1 h 42 min
Bit rate : 2 b/s
Count of elements : 76
Stream size : 1.61 KiB (0%)
Title : Forced
Language : English
Default : No
Forced : No

Text #4
ID : 8
Format : UTF-8
Codec ID : S_TEXT/UTF8
Codec ID/Info : UTF-8 Plain Text
Duration : 1 h 56 min
Bit rate : 58 b/s
Count of elements : 1769
Stream size : 50.2 KiB (0%)
Title : SDH
Language : English
Default : No
Forced : No

Menu
00:00:00.000 : en:Chapter 01
00:10:23.581 : en:Chapter 02
00:19:57.613 : en:Chapter 03
00:29:29.893 : en:Chapter 04
00:38:35.146 : en:Chapter 05
00:50:42.081 : en:Chapter 06
01:00:21.409 : en:Chapter 07
01:09:44.722 : en:Chapter 08
01:19:36.271 : en:Chapter 09
01:29:12.305 : en:Chapter 10
01:40:20.389 : en:Chapter 11
01:49:40.991 : en:Chapter 12
01:53:13.078 : en:Chapter 13

Другие фильмы
У данной публикации пока нет комментариев.
Будь первым, оставь своё мнение в комментариях!
Информация
Посетители, находящиеся в группе Гости, не могут оставлять комментарии к данной публикации.
Самый популярный релиз недели

Кино копилка
...
Какую тему вы используете?

Реклама
Последние комментарии
...

sanders2

Вчера, 21:29

...

ivanfan1337

1 февраля 2023 12:49

...

Bhaar

30 января 2023 22:55

...

dembell56

29 января 2023 11:37

...

rmzshka

27 января 2023 14:23

Реклама