+2

Звездный путь 6: Неоткрытая страна / Star Trek VI: The Undiscovered Country (1991) UHD BDRemux 2160p от селезень | 4K | HDR | P, A

Информация о фильме
Название: Звездный путь 6: Неоткрытая страна
Оригинальное название: Star Trek VI: The Undiscovered Country
Год выхода: 1991
Жанр: фантастика, боевик, триллер, приключения
Режиссер: Николас Мейер
В ролях: Уильям Шетнер, Леонард Нимой, ДеФорест Келли, Джеймс Дуэн, Уолтер Кениг, Нишелль Николс, Джордж Такей, Ким Кэтролл, Дэвид Уорнер, Кристофер Пламмер

О фильме: После взрыва Праксиса, одной из лун Кроноса, уничтожившего у клингонов практически все средства к существованию, противостояние Федерации и Клингонской Империи окончилось. Настала пора мирных переговоров, но, как выяснилось, не все хотят мира - некоторых устраивает непрекращающаяся война.

Кирк и его верный экипаж, уже «без пяти минут в отставке», получают секретное задание провести первый, подготовительный раунд мирных переговоров с Канцлером Клингонской Империи. Но происходит непредвиденное - на клингонский корабль совершено нападение, канцлер убит, переговоры сорваны, и в этом злодеянии обвиняется «Энтерпрайз», а конкретно - капитан Кирк и доктор МакКой.

Пока высшие чины Федерации размышляют, как им поступить, Клингонский суд приговаривает их к тюремному заключению на отделенном, покрытом вечными льдами астероиде. Но они не теряют надежды - потому, что они офицеры Звездного Флота, и потому, что у Кирка есть миссия - он давно догадался, что это заговор, имеющий целью сорвать мирные переговоры, и постепенно он начинает раскрывать его.

А в это время «Энтерпрайз» под командованием Спока тайно летит им на выручку...


Страна: США
Студия: Paramount Pictures
Продолжительность: 01:49:55
Перевод(ы):
#1: Профессиональный многоголосый | SDI Media
#2: Авторский | А. Гаврилов


Качество: BDRemux 2160p
Видео: 3840x2160 at 23.976 fps, MPEG-H HEVC HDR ~ 68300 kbps avg
Аудио #01: 48 kHz, AC3, 2.0, 192 Kbps | Профессиональный многоголосый | SDI Media | RUS |Звездный путь 6: Неоткрытая страна / Star Trek VI: The Undiscovered Country (1991) UHD BDRemux 2160p от селезень | 4K | HDR | P, A
Аудио #02: 48 kHz, AC3, 5.1, 640 Kbps | Авторский | А. Гаврилов | RUS |
Аудио #03: 48 kHz, TrueHD, 7.1, 1937 Kbps | Оригинал | ENG |
Аудио #04: 48 kHz, AC3, 5.1, 640 Kbps | Оригинал | ENG |
Субтитры: Русские (Full), английские

Звездный путь 6: Неоткрытая страна / Star Trek VI: The Undiscovered Country (1991) UHD BDRemux 2160p от селезень | 4K | HDR | P, A

Авторизуйтесь для получения доступа к скачиванию

Нет аккаунта? Регистрация открыта и займёт меньше минуты

Вход Регистрация

General
Unique ID : 290962613315584820005871003671358429292 (0xDAE55C6868DF2D95C90BE330CAD5586C)
Complete name : D:\Videos\Star.Trek.VI.The.Undiscovered.Country.1991.BDREMUX.2160p.HDR.seleZen.mkv
Format : Matroska
Format version : Version 4
File size : 55.1 GiB
Duration : 1 h 49 min
Overall bit rate mode : Variable
Overall bit rate : 71.7 Mb/s
Movie name : Star Trek VI: The Undiscovered Country 1991 from seleZen
Encoded date : UTC 2022-12-02 19:15:43
Writing application : mkvmerge v59.0.0 ('Shining Star') 64-bit
Writing library : libebml v1.4.2 + libmatroska v1.6.4

Video
ID : 1
Format : HEVC
Format/Info : High Efficiency Video Coding
Format profile : Main [email protected]@High
HDR format : SMPTE ST 2086, HDR10 compatible
Codec ID : V_MPEGH/ISO/HEVC
Duration : 1 h 49 min
Bit rate : 68.3 Mb/s
Width : 3 840 pixels
Height : 2 160 pixels
Display aspect ratio : 16:9
Frame rate mode : Constant
Frame rate : 23.976 (24000/1001) FPS
Color space : YUV
Chroma subsampling : 4:2:0 (Type 2)
Bit depth : 10 bits
Bits/(Pixel*Frame) : 0.343
Stream size : 52.4 GiB (95%)
Language : English
Default : Yes
Forced : No
Color range : Limited
Color primaries : BT.2020
Transfer characteristics : PQ
Matrix coefficients : BT.2020 non-constant
Mastering display color pri : Display P3
Mastering display luminance : min: 0.0050 cd/m2, max: 4000 cd/m2
Maximum Content Light Level : 1000 cd/m2
Maximum Frame-Average Light : 251 cd/m2

Audio #1
ID : 2
Format : AC-3
Format/Info : Audio Coding 3
Commercial name : Dolby Digital
Format settings : Dolby Surround
Codec ID : A_AC3
Duration : 1 h 49 min
Bit rate mode : Constant
Bit rate : 192 kb/s
Channel(s) : 2 channels
Channel layout : L R
Sampling rate : 48.0 kHz
Frame rate : 31.250 FPS (1536 SPF)
Compression mode : Lossy
Stream size : 151 MiB (0%)
Title : MVO [SDI Media]
Language : Russian
Service kind : Complete Main
Default : Yes
Forced : Yes

Audio #2
ID : 3
Format : AC-3
Format/Info : Audio Coding 3
Commercial name : Dolby Digital
Codec ID : A_AC3
Duration : 1 h 49 min
Bit rate mode : Constant
Bit rate : 640 kb/s
Channel(s) : 6 channels
Channel layout : L R C LFE Ls Rs
Sampling rate : 48.0 kHz
Frame rate : 31.250 FPS (1536 SPF)
Compression mode : Lossy
Stream size : 503 MiB (1%)
Title : AVO [А. Гаврилов]
Language : Russian
Service kind : Complete Main
Default : No
Forced : No

Audio #3
ID : 4
Format : MLP FBA
Format/Info : Meridian Lossless Packing FBA
Commercial name : Dolby TrueHD
Codec ID : A_TRUEHD
Duration : 1 h 49 min
Bit rate mode : Variable
Bit rate : 1 937 kb/s
Maximum bit rate : 2 817 kb/s
Channel(s) : 8 channels
Channel layout : L R C LFE Ls Rs Lb Rb
Sampling rate : 48.0 kHz
Frame rate : 1 200.000 FPS (40 SPF)
Compression mode : Lossless
Stream size : 1.49 GiB (3%)
Title : Original
Language : English
Default : No
Forced : No

Audio #4
ID : 5
Format : AC-3
Format/Info : Audio Coding 3
Commercial name : Dolby Digital
Codec ID : A_AC3
Duration : 1 h 49 min
Bit rate mode : Constant
Bit rate : 640 kb/s
Channel(s) : 6 channels
Channel layout : L R C LFE Ls Rs
Sampling rate : 48.0 kHz
Frame rate : 31.250 FPS (1536 SPF)
Compression mode : Lossy
Stream size : 503 MiB (1%)
Language : English
Service kind : Complete Main
Default : No
Forced : No

Text #1
ID : 6
Format : UTF-8
Codec ID : S_TEXT/UTF8
Codec ID/Info : UTF-8 Plain Text
Duration : 1 h 40 min
Bit rate : 89 b/s
Frame rate : 0.153 FPS
Count of elements : 918
Stream size : 65.9 KiB (0%)
Language : Russian
Default : No
Forced : No

Text #2
ID : 7
Format : UTF-8
Codec ID : S_TEXT/UTF8
Codec ID/Info : UTF-8 Plain Text
Duration : 1 h 40 min
Bit rate : 58 b/s
Frame rate : 0.193 FPS
Count of elements : 1158
Stream size : 42.8 KiB (0%)
Language : English
Default : No
Forced : No

Menu
00:00:00.000 : Глава 01
00:03:18.782 : Глава 02
00:11:57.133 : Глава 03
00:19:38.260 : Глава 04
00:26:39.348 : Глава 05
00:37:27.162 : Глава 06
00:41:26.818 : Глава 07
00:53:09.436 : Глава 08
01:05:02.982 : Глава 09
01:08:41.617 : Глава 10
01:19:05.741 : Глава 11
01:23:17.618 : Глава 12
01:31:51.714 : Глава 13
01:38:24.190 : Глава 14
01:43:59.358 : Глава 15

Другие фильмы
У данной публикации пока нет комментариев.
Будь первым, оставь своё мнение в комментариях!
Информация
Посетители, находящиеся в группе Гости, не могут оставлять комментарии к данной публикации.
Самый популярный релиз недели

Кино копилка
...
Какую тему вы используете?

Реклама
Последние комментарии
...

sanders2

Вчера, 21:29

...

ivanfan1337

1 февраля 2023 12:49

...

Bhaar

30 января 2023 22:55

...

dembell56

29 января 2023 11:37

...

rmzshka

27 января 2023 14:23

Реклама