+6

Амстердам / Amsterdam (2022) UHD BDRemux 2160p от селезень | 4K | HDR | D, P, A

Информация о фильме
Название: Амстердам
Оригинальное название: Amsterdam
Год выхода: 2022
Жанр: комедия, детектив, история
Режиссер: Дэвид О. Расселл
В ролях: Кристиан Бэйл, Джон Дэвид Вашингтон, Марго Робби, Рами Малек, Андреа Райзборо, Аня Тейлор-Джой, Крис Рок, Алессандро Нивола, Маттиас Шонартс, Майкл Шеннон

О фильме: Нью-Йорк, 1933 год. Ветеран Первой мировой Бёрт Берендсен держит небольшую клинику и помогает таким же покалеченным войной бедолагам, как и он сам. Однажды его с лучшим другом и сослуживцем, адвокатом Харольдом Вудменом, нанимает дочь их бывшего полководца, чтобы провести вскрытие внезапно почившего отца, который только что прибыл из Европы и собирался выступить с речью на собрании однополчан. Ввязавшись в это дело, Бёрт и Харольд даже не представляли, как далеко оно их заведёт, и что они снова встретят свою родную душу Валери - медсестру из французского госпиталя, с которой они по окончании войны провели незабываемое время в Амстердаме.

Страна: США, Канада
Студия: 20th Century Studios, Canterbury Classic, Forest Hill Entertainment, Regency Enterprizes, Regency Television
Продолжительность: 02:14:14
Перевод(ы):
#1: Дублированный (неофициальный) | Jaskier
#2: Профессиональный многоголосый | LostFilm
#3: Профессиональный многоголосый | TvShows
#4: Авторский | Д. Есарев


Качество: BDRemux 2160p
Видео: 3840x2160 at 23.976 fps, MPEG-H HEVC HDR ~ 52300 kbps avg
Аудио #01: 48 kHz, AC3, 5.1, 448 Kbps | Дублированный | Jaskier | RUS |Амстердам / Amsterdam (2022) UHD BDRemux 2160p от селезень | 4K | HDR | D, P, A
Аудио #02: 48 kHz, AC3, 2.0, 192 Kbps | Профессиональный многоголосый | LostFilm | RUS |
Аудио #03: 48 kHz, AC3, 2.0, 192 Kbps | Профессиональный многоголосый | TvShows | RUS |
Аудио #04: 48 kHz, AC3, 5.1, 384 Kbps | Авторский | Д. Есарев (18+) | RUS |
Аудио #05: 48 kHz, TrueHD, 7.1, 3845 Kbps | Оригинал | ENG |
Аудио #06: 48 kHz, AC3, 5.1, 640 Kbps | Оригинал | ENG |
Субтитры: Русские (Full), английские

Амстердам / Amsterdam (2022) UHD BDRemux 2160p от селезень | 4K | HDR | D, P, A

Авторизуйтесь для получения доступа к скачиванию

Нет аккаунта? Регистрация открыта и займёт меньше минуты

Вход Регистрация

General
Unique ID : 32643209058314604119898589369358822305 (0x188EDA772729374735398C419A8F2BA1)
Complete name : D:\VideoD\Amsterdam.2022.BDREMUX.2160p.HDR.seleZen.mkv
Format : Matroska
Format version : Version 4
File size : 54.4 GiB
Duration : 2 h 14 min
Overall bit rate mode : Variable
Overall bit rate : 58.0 Mb/s
Movie name : Amsterdam 2022 from seleZen
Encoded date : UTC 2022-12-08 06:31:03
Writing application : mkvmerge v59.0.0 ('Shining Star') 64-bit
Writing library : libebml v1.4.2 + libmatroska v1.6.4

Video
ID : 1
Format : HEVC
Format/Info : High Efficiency Video Coding
Format profile : Main [email protected]@High
HDR format : SMPTE ST 2086, HDR10 compatible
Codec ID : V_MPEGH/ISO/HEVC
Duration : 2 h 14 min
Bit rate : 52.3 Mb/s
Width : 3 840 pixels
Height : 2 160 pixels
Display aspect ratio : 16:9
Frame rate mode : Constant
Frame rate : 23.976 (24000/1001) FPS
Color space : YUV
Chroma subsampling : 4:2:0 (Type 2)
Bit depth : 10 bits
Bits/(Pixel*Frame) : 0.263
Stream size : 49.0 GiB (90%)
Language : English
Default : Yes
Forced : No
Color range : Limited
Color primaries : BT.2020
Transfer characteristics : PQ
Matrix coefficients : BT.2020 non-constant
Mastering display color pri : BT.2020
Mastering display luminance : min: 0.0050 cd/m2, max: 1000 cd/m2

Audio #1
ID : 2
Format : AC-3
Format/Info : Audio Coding 3
Commercial name : Dolby Digital
Codec ID : A_AC3
Duration : 2 h 14 min
Bit rate mode : Constant
Bit rate : 448 kb/s
Channel(s) : 6 channels
Channel layout : L R C LFE Ls Rs
Sampling rate : 48.0 kHz
Frame rate : 31.250 FPS (1536 SPF)
Compression mode : Lossy
Stream size : 430 MiB (1%)
Title : Dub [Jaskier]
Language : Russian
Service kind : Complete Main
Default : Yes
Forced : Yes

Audio #2
ID : 3
Format : AC-3
Format/Info : Audio Coding 3
Commercial name : Dolby Digital
Codec ID : A_AC3
Duration : 2 h 14 min
Bit rate mode : Constant
Bit rate : 192 kb/s
Channel(s) : 2 channels
Channel layout : L R
Sampling rate : 48.0 kHz
Frame rate : 31.250 FPS (1536 SPF)
Compression mode : Lossy
Stream size : 184 MiB (0%)
Title : MVO [LostFilm]
Language : Russian
Service kind : Complete Main
Default : No
Forced : No

Audio #3
ID : 4
Format : AC-3
Format/Info : Audio Coding 3
Commercial name : Dolby Digital
Codec ID : A_AC3
Duration : 2 h 14 min
Bit rate mode : Constant
Bit rate : 192 kb/s
Channel(s) : 2 channels
Channel layout : L R
Sampling rate : 48.0 kHz
Frame rate : 31.250 FPS (1536 SPF)
Compression mode : Lossy
Stream size : 184 MiB (0%)
Title : MVO [TVShows]
Language : Russian
Service kind : Complete Main
Default : No
Forced : No

Audio #4
ID : 5
Format : AC-3
Format/Info : Audio Coding 3
Commercial name : Dolby Digital
Codec ID : A_AC3
Duration : 2 h 14 min
Bit rate mode : Constant
Bit rate : 384 kb/s
Channel(s) : 6 channels
Channel layout : L R C LFE Ls Rs
Sampling rate : 48.0 kHz
Frame rate : 31.250 FPS (1536 SPF)
Compression mode : Lossy
Stream size : 369 MiB (1%)
Title : AVO [Д.Есарев]
Language : Russian
Service kind : Complete Main
Default : No
Forced : No

Audio #5
ID : 6
Format : MLP FBA 16-ch
Format/Info : Meridian Lossless Packing FBA with 16-channel presentation
Commercial name : Dolby TrueHD with Dolby Atmos
Codec ID : A_TRUEHD
Duration : 2 h 14 min
Bit rate mode : Variable
Bit rate : 3 845 kb/s
Maximum bit rate : 6 354 kb/s
Channel(s) : 8 channels
Channel layout : L R C LFE Ls Rs Lb Rb
Sampling rate : 48.0 kHz
Frame rate : 1 200.000 FPS (40 SPF)
Compression mode : Lossless
Stream size : 3.61 GiB (7%)
Title : Original
Language : English
Default : No
Forced : No
Number of dynamic objects : 13
Bed channel count : 1 channel
Bed channel configuration : LFE

Audio #6
ID : 7
Format : AC-3
Format/Info : Audio Coding 3
Commercial name : Dolby Digital
Codec ID : A_AC3
Duration : 2 h 14 min
Bit rate mode : Constant
Bit rate : 640 kb/s
Channel(s) : 6 channels
Channel layout : L R C LFE Ls Rs
Sampling rate : 48.0 kHz
Frame rate : 31.250 FPS (1536 SPF)
Compression mode : Lossy
Stream size : 615 MiB (1%)
Language : English
Service kind : Complete Main
Default : No
Forced : No

Text #1
ID : 8
Format : UTF-8
Codec ID : S_TEXT/UTF8
Codec ID/Info : UTF-8 Plain Text
Duration : 2 h 8 min
Bit rate : 148 b/s
Frame rate : 0.334 FPS
Count of elements : 2571
Stream size : 140 KiB (0%)
Title : Full
Language : Russian
Default : No
Forced : No

Text #2
ID : 9
Format : UTF-8
Codec ID : S_TEXT/UTF8
Codec ID/Info : UTF-8 Plain Text
Duration : 6 min 14 s
Bit rate : 18 b/s
Frame rate : 0.115 FPS
Count of elements : 43
Stream size : 880 Bytes (0%)
Title : Forced
Language : English
Default : No
Forced : No

Text #3
ID : 10
Format : UTF-8
Codec ID : S_TEXT/UTF8
Codec ID/Info : UTF-8 Plain Text
Duration : 2 h 6 min
Bit rate : 98 b/s
Frame rate : 0.392 FPS
Count of elements : 2976
Stream size : 91.4 KiB (0%)
Title : Full
Language : English
Default : No
Forced : No

Text #4
ID : 11
Format : UTF-8
Codec ID : S_TEXT/UTF8
Codec ID/Info : UTF-8 Plain Text
Duration : 2 h 12 min
Bit rate : 102 b/s
Frame rate : 0.397 FPS
Count of elements : 3159
Stream size : 99.8 KiB (0%)
Title : SDH
Language : English
Default : No
Forced : No

Menu
00:00:00.000 : Глава 01
00:07:10.555 : Глава 02
00:15:38.229 : Глава 03
00:26:46.438 : Глава 04
00:33:22.375 : Глава 05
00:45:19.467 : Глава 06
00:50:58.055 : Глава 07
01:02:26.576 : Глава 08
01:12:40.731 : Глава 09
01:20:57.352 : Глава 10
01:25:32.085 : Глава 11
01:32:46.311 : Глава 12
01:35:32.977 : Глава 13
01:39:08.818 : Глава 14
01:42:45.493 : Глава 15
01:49:23.307 : Глава 16
01:55:52.320 : Глава 17
02:07:03.115 : Глава 18

Другие фильмы
У данной публикации пока нет комментариев.
Будь первым, оставь своё мнение в комментариях!
Информация
Посетители, находящиеся в группе Гости, не могут оставлять комментарии к данной публикации.
Самый популярный релиз недели

Кино копилка
...
Какую тему вы используете?

Реклама
Последние комментарии
...

sanders2

Вчера, 21:29

...

ivanfan1337

1 февраля 2023 12:49

...

Bhaar

30 января 2023 22:55

...

dembell56

29 января 2023 11:37

...

rmzshka

27 января 2023 14:23

Реклама