+8

Амстердам / Amsterdam (2022) BDRip 1080p от селезень | D, P, A

Информация о фильме
Название: Амстердам
Оригинальное название: Amsterdam
Год выхода: 2022
Жанр: комедия, детектив, история
Режиссер: Дэвид О. Расселл
В ролях: Кристиан Бэйл, Джон Дэвид Вашингтон, Марго Робби, Рами Малек, Андреа Райзборо, Аня Тейлор-Джой, Крис Рок, Алессандро Нивола, Маттиас Шонартс, Майкл Шеннон

О фильме: Нью-Йорк, 1933 год. Ветеран Первой мировой Бёрт Берендсен держит небольшую клинику и помогает таким же покалеченным войной бедолагам, как и он сам. Однажды его с лучшим другом и сослуживцем, адвокатом Харольдом Вудменом, нанимает дочь их бывшего полководца, чтобы провести вскрытие внезапно почившего отца, который только что прибыл из Европы и собирался выступить с речью на собрании однополчан. Ввязавшись в это дело, Бёрт и Харольд даже не представляли, как далеко оно их заведёт, и что они снова встретят свою родную душу Валери - медсестру из французского госпиталя, с которой они по окончании войны провели незабываемое время в Амстердаме.

Страна: США, Канада
Студия: 20th Century Studios, Canterbury Classic, Forest Hill Entertainment, Regency Enterprizes, Regency Television
Продолжительность: 02:14:14
Перевод(ы):
#1: Дублированный (неофициальный) | Jaskier
#2: Профессиональный многоголосый | LostFilm
#3: Профессиональный многоголосый | TvShows
#4: Авторский | Д. Есарев


Качество: BDRip 1080p
Видео: MPEG-4 AVC, 1920x804, 6781 Kbit/s, 23.976 fps
Аудио #01: 48 kHz, AC3, 5.1, 448 Kbps | Дублированный | Jaskier | RUS |Амстердам / Amsterdam (2022) BDRip 1080p от селезень | D, P, A
Аудио #02: 48 kHz, AC3, 2.0, 192 Kbps | Профессиональный многоголосый | LostFilm | RUS |
Аудио #03: 48 kHz, AC3, 2.0, 192 Kbps | Профессиональный многоголосый | TvShows | RUS |
Аудио #04: 48 kHz, AC3, 5.1, 384 Kbps | Авторский | Д. Есарев (18+) | RUS |
Аудио #05: 48 kHz, AC3, 5.1, 640 Kbps | Оригинал | ENG |
Субтитры: Русские (Full), английские

Амстердам / Amsterdam (2022) BDRip 1080p от селезень | D, P, A

Авторизуйтесь для получения доступа к скачиванию

Нет аккаунта? Регистрация открыта и займёт меньше минуты

Вход Регистрация

General
Unique ID : 291271310261118472013800419630696860742 (0xDB20D057A3D2F3F4E17FD16C04038C46)
Complete name : D:\Videos\Amsterdam.2022.BDRip.1080p.seleZen.mkv
Format : Matroska
Format version : Version 4
File size : 8.10 GiB
Duration : 2 h 14 min
Overall bit rate : 8 640 kb/s
Movie name : Amsterdam 2022 from seleZen
Encoded date : UTC 2022-12-05 22:12:06
Writing application : mkvmerge v59.0.0 ('Shining Star') 64-bit
Writing library : libebml v1.4.2 + libmatroska v1.6.4

Video
ID : 1
Format : AVC
Format/Info : Advanced Video Codec
Format profile : [email protected]
Format settings : CABAC / 5 Ref Frames
Format settings, CABAC : Yes
Format settings, Reference : 5 frames
Codec ID : V_MPEG4/ISO/AVC
Duration : 2 h 14 min
Bit rate : 6 781 kb/s
Width : 1 920 pixels
Height : 804 pixels
Display aspect ratio : 2.40:1
Frame rate mode : Constant
Frame rate : 23.976 (24000/1001) FPS
Color space : YUV
Chroma subsampling : 4:2:0
Bit depth : 8 bits
Scan type : Progressive
Bits/(Pixel*Frame) : 0.183
Stream size : 6.36 GiB (78%)
Title : MTeam
Writing library : x264 core 157 r2938 2b00a84 [email protected] Mod
Encoding settings : cabac=1 / ref=5 / deblock=1:-3:-3 / analyse=0x3:0x133 / me=umh / subme=10 / psy=1 / psy_rd=1.05:0.00 / mixed_ref=1 / me_range=32 / chroma_me=1 / trellis=2 / 8x8dct=1 / cqm=0 / deadzone=21,11 / fast_pskip=0 / chroma_qp_offset=-2 / threads=12 / lookahead_threads=2 / sliced_threads=0 / nr=0 / decimate=0 / interlaced=0 / bluray_compat=0 / constrained_intra=0 / bframes=8 / b_pyramid=2 / b_adapt=2 / b_bias=0 / direct=3 / weightb=1 / open_gop=0 / weightp=2 / keyint=250 / keyint_min=24 / scenecut=40 / intra_refresh=0 / rc_lookahead=250 / rc=crf / mbtree=0 / crf=16.8 / qcomp=0.60 / qpmin=0 / qpmax=69 / qpstep=4 / vbv_maxrate=62500 / vbv_bufsize=78125 / crf_max=0.0 / nal_hrd=none / filler=0 / ip_ratio=1.30 / pb_ratio=1.20 / aq=3:0.80
Language : English
Default : Yes
Forced : No
Color range : Limited
Color primaries : BT.709
Matrix coefficients : BT.709

Audio #1
ID : 2
Format : AC-3
Format/Info : Audio Coding 3
Commercial name : Dolby Digital
Codec ID : A_AC3
Duration : 2 h 14 min
Bit rate mode : Constant
Bit rate : 448 kb/s
Channel(s) : 6 channels
Channel layout : L R C LFE Ls Rs
Sampling rate : 48.0 kHz
Frame rate : 31.250 FPS (1536 SPF)
Compression mode : Lossy
Stream size : 430 MiB (5%)
Title : Dub [Jaskier]
Language : Russian
Service kind : Complete Main
Default : Yes
Forced : Yes

Audio #2
ID : 3
Format : AC-3
Format/Info : Audio Coding 3
Commercial name : Dolby Digital
Codec ID : A_AC3
Duration : 2 h 14 min
Bit rate mode : Constant
Bit rate : 192 kb/s
Channel(s) : 2 channels
Channel layout : L R
Sampling rate : 48.0 kHz
Frame rate : 31.250 FPS (1536 SPF)
Compression mode : Lossy
Stream size : 184 MiB (2%)
Title : MVO [LostFilm]
Language : Russian
Service kind : Complete Main
Default : No
Forced : No

Audio #3
ID : 4
Format : AC-3
Format/Info : Audio Coding 3
Commercial name : Dolby Digital
Codec ID : A_AC3
Duration : 2 h 14 min
Bit rate mode : Constant
Bit rate : 192 kb/s
Channel(s) : 2 channels
Channel layout : L R
Sampling rate : 48.0 kHz
Frame rate : 31.250 FPS (1536 SPF)
Compression mode : Lossy
Stream size : 184 MiB (2%)
Title : MVO [TVShows]
Language : Russian
Service kind : Complete Main
Default : No
Forced : No

Audio #4
ID : 5
Format : AC-3
Format/Info : Audio Coding 3
Commercial name : Dolby Digital
Codec ID : A_AC3
Duration : 2 h 14 min
Bit rate mode : Constant
Bit rate : 384 kb/s
Channel(s) : 6 channels
Channel layout : L R C LFE Ls Rs
Sampling rate : 48.0 kHz
Frame rate : 31.250 FPS (1536 SPF)
Compression mode : Lossy
Stream size : 369 MiB (4%)
Title : AVO [Д.Есарев]
Language : Russian
Service kind : Complete Main
Default : No
Forced : No

Audio #5
ID : 6
Format : AC-3
Format/Info : Audio Coding 3
Commercial name : Dolby Digital
Codec ID : A_AC3
Duration : 2 h 14 min
Bit rate mode : Constant
Bit rate : 640 kb/s
Channel(s) : 6 channels
Channel layout : L R C LFE Ls Rs
Sampling rate : 48.0 kHz
Frame rate : 31.250 FPS (1536 SPF)
Compression mode : Lossy
Stream size : 615 MiB (7%)
Title : Original
Language : English
Service kind : Complete Main
Default : No
Forced : No

Text #1
ID : 7
Format : UTF-8
Codec ID : S_TEXT/UTF8
Codec ID/Info : UTF-8 Plain Text
Duration : 2 h 8 min
Bit rate : 148 b/s
Frame rate : 0.334 FPS
Count of elements : 2571
Stream size : 140 KiB (0%)
Title : Full
Language : Russian
Default : No
Forced : No

Text #2
ID : 8
Format : UTF-8
Codec ID : S_TEXT/UTF8
Codec ID/Info : UTF-8 Plain Text
Duration : 6 min 14 s
Bit rate : 18 b/s
Frame rate : 0.115 FPS
Count of elements : 43
Stream size : 880 Bytes (0%)
Title : Forced
Language : English
Default : No
Forced : No

Text #3
ID : 9
Format : UTF-8
Codec ID : S_TEXT/UTF8
Codec ID/Info : UTF-8 Plain Text
Duration : 2 h 6 min
Bit rate : 98 b/s
Frame rate : 0.392 FPS
Count of elements : 2976
Stream size : 91.4 KiB (0%)
Title : Full
Language : English
Default : No
Forced : No

Text #4
ID : 10
Format : UTF-8
Codec ID : S_TEXT/UTF8
Codec ID/Info : UTF-8 Plain Text
Duration : 2 h 12 min
Bit rate : 102 b/s
Frame rate : 0.397 FPS
Count of elements : 3159
Stream size : 99.8 KiB (0%)
Title : SDH
Language : English
Default : No
Forced : No

Menu
00:00:00.000 : Chapter 01
00:07:10.555 : Chapter 02
00:15:38.229 : Chapter 03
00:26:46.438 : Chapter 04
00:33:22.375 : Chapter 05
00:45:19.467 : Chapter 06
00:50:58.055 : Chapter 07
01:02:26.576 : Chapter 08
01:12:40.731 : Chapter 09
01:20:57.352 : Chapter 10
01:25:32.085 : Chapter 11
01:32:46.311 : Chapter 12
01:35:32.977 : Chapter 13
01:39:08.818 : Chapter 14
01:42:45.493 : Chapter 15
01:49:23.307 : Chapter 16
01:55:52.320 : Chapter 17
02:07:03.115 : Chapter 18

Другие фильмы
У данной публикации пока нет комментариев.
Будь первым, оставь своё мнение в комментариях!
Информация
Посетители, находящиеся в группе Гости, не могут оставлять комментарии к данной публикации.
Самый популярный релиз недели

Кино копилка
...
Какую тему вы используете?

Реклама
Последние комментарии
...

sanders2

Вчера, 21:29

...

ivanfan1337

1 февраля 2023 12:49

...

Bhaar

30 января 2023 22:55

...

dembell56

29 января 2023 11:37

...

rmzshka

27 января 2023 14:23

Реклама