+3

Невероятно, но факт / Incroyable mais vrai / Incredible But True (2022) BDRip 1080p от селезень | D

Информация о фильме
Название: Невероятно, но факт
Оригинальное название: Incroyable mais vrai
Год выхода: 2022
Жанр: фэнтези, драма, комедия, детектив
Режиссер: Квентин Дюпьё
В ролях: Ален Шаба, Леа Дрюкер, Бенуа Мажимель, Анаис Демустье, Стефан Пезера, Мари-Кристин Орри, Роксана Арналь, Лена Лапре, Грегуар Бонне, Хиро Утияма

О фильме: Алан и Мари - супружеская пара за 40 - переезжают в дом своей мечты в пригороде. Но риэлтор предупреждает их: то, что находится в подвале, может круто изменить их жизнь.

Страна: Франция, Бельгия
Студия: arte France Cinéma, Atelier de Production, Versus Production
Продолжительность: 01:13:15
Перевод: Дублированный | Back Board Cinema

Качество: BDRip 1080p
Видео: MPEG-4 AVC, 1920x804, 17.8 Mbit/s, 24.000 fps
Аудио #01: 48 kHz, AC3, 5.1, 384 Kbps | Дублированный | Back Board Cinema | RUS |Невероятно, но факт / Incroyable mais vrai / Incredible But True (2022) BDRip 1080p от селезень | D
Аудио #02: 48 kHz, AC3, 5.1, 640 Kbps | Оригинал | FRE |
Субтитры: Английские

Невероятно, но факт / Incroyable mais vrai / Incredible But True (2022) BDRip 1080p от селезень | D

Авторизуйтесь для получения доступа к скачиванию

Нет аккаунта? Регистрация открыта и займёт меньше минуты

Вход Регистрация

General
Unique ID : 88578751089966355541600625138442772558 (0x42A3A59C4A7489ACE84DF68DF841204E)
Complete name : D:\Incredible.But.True.2022.BDRip.1080p.seleZen.mkv
Format : Matroska
Format version : Version 4
File size : 9.63 GiB
Duration : 1 h 13 min
Overall bit rate : 18.8 Mb/s
Movie name : Incroyable mais vrai AKA Incredible But True 2022 from seleZen
Encoded date : UTC 2022-11-25 08:52:47
Writing application : mkvmerge v59.0.0 ('Shining Star') 64-bit
Writing library : libebml v1.4.2 + libmatroska v1.6.4

Video
ID : 1
Format : AVC
Format/Info : Advanced Video Codec
Format profile : [email protected]
Format settings : CABAC / 5 Ref Frames
Format settings, CABAC : Yes
Format settings, Reference : 5 frames
Codec ID : V_MPEG4/ISO/AVC
Duration : 1 h 13 min
Bit rate : 17.8 Mb/s
Width : 1 920 pixels
Height : 804 pixels
Display aspect ratio : 2.40:1
Frame rate mode : Constant
Frame rate : 24.000 FPS
Color space : YUV
Chroma subsampling : 4:2:0
Bit depth : 8 bits
Scan type : Progressive
Bits/(Pixel*Frame) : 0.480
Stream size : 9.11 GiB (95%)
Title : ZQ
Writing library : x264 core 164 r3094+49M 0246926 devel [(8 & 10)[email protected] X86_64]
Encoding settings : cabac=1 / ref=5 / deblock=1:-3:-3 / analyse=0x3:0x133 / me=tesa / subme=11 / psy=1 / fade_compensate=0.00 / psy_rd=1.05:0.00 / mixed_ref=1 / me_range=32 / chroma_me=1 / trellis=2 / 8x8dct=1 / cqm=0 / deadzone=21,11 / fast_pskip=0 / chroma_qp_offset=-2 / threads=8 / lookahead_threads=2 / sliced_threads=0 / nr=0 / decimate=1 / interlaced=0 / bluray_compat=0 / constrained_intra=0 / fgo=0 / bframes=16 / b_pyramid=2 / b_adapt=2 / b_bias=0 / direct=3 / weightb=1 / open_gop=0 / weightp=2 / keyint=250 / keyint_min=24 / scenecut=40 / intra_refresh=0 / rc_lookahead=250 / rc=crf / mbtree=0 / crf=17.2000 / qcomp=0.62 / qpmin=0:0:0 / qpmax=69:69:69 / qpstep=4 / vbv_maxrate=62500 / vbv_bufsize=78125 / crf_max=0.0 / nal_hrd=none / filler=0 / ip_ratio=1.30 / pb_ratio=1.20 / aq=3:0.80 / aq-sensitivity=10.00 / aq-factor=1.00:1.00:1.00 / aq2=0 / aq3=0
Language : French
Default : Yes
Forced : No

Audio #1
ID : 2
Format : AC-3
Format/Info : Audio Coding 3
Commercial name : Dolby Digital
Codec ID : A_AC3
Duration : 1 h 13 min
Bit rate mode : Constant
Bit rate : 384 kb/s
Channel(s) : 6 channels
Channel layout : L R C LFE Ls Rs
Sampling rate : 48.0 kHz
Frame rate : 31.250 FPS (1536 SPF)
Compression mode : Lossy
Stream size : 201 MiB (2%)
Title : Dub
Language : Russian
Service kind : Complete Main
Default : Yes
Forced : Yes

Audio #2
ID : 3
Format : AC-3
Format/Info : Audio Coding 3
Commercial name : Dolby Digital
Codec ID : A_AC3
Duration : 1 h 13 min
Bit rate mode : Constant
Bit rate : 640 kb/s
Channel(s) : 6 channels
Channel layout : L R C LFE Ls Rs
Sampling rate : 48.0 kHz
Frame rate : 31.250 FPS (1536 SPF)
Compression mode : Lossy
Stream size : 335 MiB (3%)
Title : Original
Language : French
Service kind : Complete Main
Default : No
Forced : No

Text
ID : 4
Format : UTF-8
Codec ID : S_TEXT/UTF8
Codec ID/Info : UTF-8 Plain Text
Duration : 1 h 9 min
Bit rate : 52 b/s
Frame rate : 0.185 FPS
Count of elements : 772
Stream size : 27.0 KiB (0%)
Title : Full
Language : English
Default : No
Forced : No

Menu
00:00:00.000 : Chapter 01
00:06:35.125 : Chapter 02
00:12:48.833 : Chapter 03
00:17:43.667 : Chapter 04
00:24:45.250 : Chapter 05
00:31:34.250 : Chapter 06
00:37:14.042 : Chapter 07
00:43:06.333 : Chapter 08
00:48:22.750 : Chapter 09
00:54:42.458 : Chapter 10
01:02:03.292 : Chapter 11
01:10:01.000 : Chapter 12

Другие фильмы
У данной публикации пока нет комментариев.
Будь первым, оставь своё мнение в комментариях!
Информация
Посетители, находящиеся в группе Гости, не могут оставлять комментарии к данной публикации.
Самый популярный релиз недели
RePack от селезень 48.88 Gb ...

Кино копилка
...
Какую тему вы используете?

Реклама
Последние комментарии
...

Desol

Вчера, 21:43

...

dembell56

7 декабря 2022 23:07

...

dembell56

6 декабря 2022 22:22

...

Ponta

6 декабря 2022 17:43

...

Vostorg

6 декабря 2022 02:43

Реклама